Начать новую тему Ответить на тему
Статистика раздачи
Размер: 302.28 МБ | Добавлен: 26 мар 2019, 20:02 | Скачали: 0
Сидеров: 0  [0 байт/сек]    Личеров: 0  [0 байт/сек]
Пред. тема | След. тема 

Автор
Сообщение

СообщениеДобавлено: 26 мар 2019, 20:02 

Ответить с цитатой 

Zoé / Prográmaton
Жанр: Latin, Alternative, Rock
Носитель: CD
Страна-производитель диска: Mexico
Год издания: 2013
Издатель (лейбл): EMI Music
Номер по каталогу: 3755998
Страна: Mexico
Аудиокодек: FLAC (*.flac)
Тип рипа: image+.cue
Битрейт аудио: lossless
Продолжительность: 00:46:04
Источник (релизер): Mixup Mexico
Наличие сканов в содержимом раздачи: да
Треклист:
1. 10 A.M.
2. Cámara Lenta
3. Dos Mil Trece
4. Fin de Semana
5. Arrullo de Estrellas
6. Ciudades Invisibles
7. Panoramas
8. Game Over Shanghai (Liu Yang River)
9. Andrómeda
10. Sedantes
11. Altamar
Код:
Exact Audio Copy V1.0 beta 3 from 29. August 2011
EAC extraction logfile from 2. January 2014, 20:10
Zoé / Prográmaton
Used drive  : HL-DT-STDVDRAM GSA-H40N   Adapter: 0  ID: 0
Read mode               : Secure
Utilize accurate stream : Yes
Defeat audio cache      : Yes
Make use of C2 pointers : No
Read offset correction                      : 667
Overread into Lead-In and Lead-Out          : No
Fill up missing offset samples with silence : Yes
Delete leading and trailing silent blocks   : No
Null samples used in CRC calculations       : Yes
Used interface                              : Native Win32 interface for Win NT & 2000
Used output format              : User Defined Encoder
Selected bitrate                : 1024 kBit/s
Quality                         : High
Add ID3 tag                     : No
Command line compressor         : C:\Program Files\FLAC\flac.exe
Additional command line options : -8 -V -T "ARTIST=%artist%" -T "TITLE=%title%" -T "ALBUM=%albumtitle%" -T "DATE=%year%" -T "TRACKNUMBER=%tracknr%" -T "GENRE=%genre%" -T "PERFORMER=%albuminterpret%" -T "COMPOSER=%composer%" %haslyrics%--tag-from-file=LYRICS="%lyricsfile%"%haslyrics% -T "ALBUMARTIST=%albumartist%" -T "DISCNUMBER=%cdnumber%" -T "TOTALDISCS=%totalcds%" -T "TOTALTRACKS=%numtracks%" -T "COMMENT=%comment%" %source% -o %dest%
TOC of the extracted CD
     Track |   Start  |  Length  | Start sector | End sector
    ---------------------------------------------------------
        1  |  0:00.00 |  3:29.28 |         0    |    15702
        2  |  3:29.28 |  5:00.21 |     15703    |    38223
        3  |  8:29.49 |  4:30.39 |     38224    |    58512
        4  | 13:00.13 |  3:11.22 |     58513    |    72859
        5  | 16:11.35 |  4:12.52 |     72860    |    91811
        6  | 20:24.12 |  4:09.33 |     91812    |   110519
        7  | 24:33.45 |  3:41.23 |    110520    |   127117
        8  | 28:14.68 |  5:05.24 |    127118    |   150016
        9  | 33:20.17 |  3:44.24 |    150017    |   166840
       10  | 37:04.41 |  5:21.63 |    166841    |   190978
       11  | 42:26.29 |  3:38.40 |    190979    |   207368
Range status and errors
Selected range
     Filename C:\Users\AlexCheca\Desktop\Prográmaton\Zoé - Prográmaton.wav
     Peak level 100.0 %
     Extraction speed 6.7 X
     Range quality 99.9 %
     Test CRC 3A15D017
     Copy CRC 3A15D017
     Copy OK
No errors occurred
AccurateRip summary
Track  1  not present in database
Track  2  not present in database
Track  3  not present in database
Track  4  not present in database
Track  5  not present in database
Track  6  not present in database
Track  7  not present in database
Track  8  not present in database
Track  9  not present in database
Track 10  not present in database
Track 11  not present in database
None of the tracks are present in the AccurateRip database
End of status report
---- CUETools DB Plugin V2.1.3
[CTDB TOCID: i2Pm2QPhQh06r.27GR6YhL._SwQ-] found, Submit result: already submitted
[d6536328] (2/6) No match
[d93c9eed] (2/6) Accurately ripped
[b7e77c03] (2/6) No match
==== Log checksum 3B32A018AF5308CE717A44AB7D9F9DBAC47B0C31004D2696F71AFDBD9DEA2B6F ====
Код:
-----------------------
DON'T MODIFY THIS FILE
-----------------------
PERFORMER: auCDtect Task Manager, ver. 1.6.0 RC1 build 1.6.0.1
Copyright (c) 2008-2010 y-soft. All rights reserved
[url=http://y-soft.org]http://y-soft.org[/url]
ANALYZER: auCDtect: CD records authenticity detector, version 0.8.2
Copyright (c) 2004 Oleg Berngardt. All rights reserved.
Copyright (c) 2004 Alexander Djourik. All rights reserved.
FILE: Zoé - Prográmaton.flac
  Size: 316691926 Hash: 563CB7F0AFE15F5909CF56E084FC4D3B Accuracy: -m0
  Conclusion: CDDA 100%
  Signature: 5210FADF2CF64A3126320D7C3FF3E52CE3AF292F
Правила, инструкции, FAQ!!!
Торрент  Добавлен [26 мар 2019, 20:02] Скачать торрент Магнет ссылка
Скачать торрент
[ Размер 12.52 КБ / Просмотров 1 ]

Статус
Проверен 
 
Размер  302.28 МБ
Приватный: Нет (DHT включён)
.torrent скачан  0
 


     Отправить личное сообщение
   
Страница 1 из 1
Показать сообщения за:  Поле сортировки  
Начать новую тему Ответить на тему


Сейчас этот форум просматривают: нет зарегистрированных пользователей и гости: 0


Вы не можете начинать темы
Вы не можете отвечать на сообщения
Вы не можете редактировать свои сообщения
Вы не можете удалять свои сообщения
Вы не можете добавлять вложения

Перейти:  
cron