Начать новую тему Ответить на тему
Статистика раздачи
Размер: 288.75 МБ | Добавлен: 16 окт 2020, 21:21 | Скачали: 0
Сидеров: 1  [0 байт/сек]    Личеров: 0  [0 байт/сек]
Пред. тема | След. тема 

Автор
Сообщение

СообщениеДобавлено: 16 окт 2020, 21:21 

Ответить с цитатой 

Aimer (エメ) / Your favorite things
#777Жанр: JPop
Носитель: WEB нет информации
Страна-производитель диска (релиза): Jap
Год издания: 2011
Издатель (лейбл): Defstar Records
Страна исполнителя (группы): Jap
Аудиокодек: FLAC (*.flac)
Тип рипа: tracks
Продолжительность: 00:45:57
Источник: интернет (неизвестен)
Наличие сканов в содержимом раздачи: нет
Треклист:
1/10[/spoiler](04:15)Poker Face[/spoiler]
2/10[/spoiler](04:45)Viva la vida[/spoiler]
3/10[/spoiler](04:42)また君に恋してる (Mata Kimi ni Koishiteru)[/spoiler]
4/10[/spoiler](03:48)Crazy in Love[/spoiler]
5/10[/spoiler](04:45)三日月 (Mikazuki)[/spoiler]
6/10[/spoiler](05:48)ORION[/spoiler]
7/10[/spoiler](03:50)I Will Always Love You[/spoiler]
8/10[/spoiler](04:51)今宵の月のように (Koyoi no Tsuki no You ni)[/spoiler]
9/10[/spoiler](05:27)Precious[/spoiler]
10/10[/spoiler](03:46)Change the World[/spoiler]
Код:
foobar2000 1.4.2 / Замер динамического диапазона (DR) 1.1.1
Дата отчёта:  2020-10-15 17:52:50
--------------------------------------------------------------------------------
Анализ:   Aimer / Your favorite things
--------------------------------------------------------------------------------
DR         Пики         RMS           Продолжительность трека
--------------------------------------------------------------------------------
DR5        0.00 дБ    -6.18 дБ      4:15 1/10-Poker Face
DR6        0.00 дБ    -7.12 дБ      4:45 2/10-Viva la vida
DR6        0.00 дБ    -6.63 дБ      4:42 3/10-また君に恋してる (Mata Kimi ni Koishiteru)
DR7        0.00 дБ    -8.86 дБ      3:48 4/10-Crazy in Love
DR8        0.00 дБ    -8.78 дБ      4:45 5/10-三日月 (Mikazuki)
DR7        0.00 дБ    -7.95 дБ      5:48 6/10-ORION
DR6        0.00 дБ    -7.63 дБ      3:50 7/10-I Will Always Love You
DR7        0.00 дБ    -7.89 дБ      4:51 8/10-今宵の月のように (Koyoi no Tsuki no You ni)
DR6        0.00 дБ    -6.51 дБ      5:27 9/10-Precious
DR4        0.00 дБ    -5.72 дБ      3:46 10/10-Change the World
--------------------------------------------------------------------------------
Количество треков: 10
Реальные значения DR: DR6
Частота:   44100 Гц
Каналов:   2
Разрядность:   16
Битрейт:   921 кбит/с
Кодек:   FLAC
================================================================================
Код:
CUE Corrector v. 8.3.4 / b. 894 (Dec. 12, 2018)
————————————————————————————————————————————————————————————————————————
Aimer / Your favorite things
Folder: Aimer - Your favorite things (2011)
Audio files:
    01. Poker Face.flac [04:14.653; FLAC • 907 kbps • 16 bit \ 44100 Hz • stereo; 27.54 MB (28 873 225 B)]
    02. Viva la vida.flac [04:45.453; FLAC • 936 kbps • 16 bit \ 44100 Hz • stereo; 31.86 MB (33 411 183 B)]
    03. Mata Kimi ni Koishiteru.flac [04:42.440; FLAC • 998 kbps • 16 bit \ 44100 Hz • stereo; 33.62 MB (35 252 920 B)]
    04. Crazy in Love.flac [03:48.347; FLAC • 735 kbps • 16 bit \ 44100 Hz • stereo; 20.03 MB (21 006 560 B)]
    05. Mikazuki.flac [04:45.213; FLAC • 771 kbps • 16 bit \ 44100 Hz • stereo; 26.22 MB (27 493 074 B)]
    06. ORION.flac [05:48.280; FLAC • 798 kbps • 16 bit \ 44100 Hz • stereo; 33.16 MB (34 775 283 B)]
    07. I Will Always Love You.flac [03:49.653; FLAC • 910 kbps • 16 bit \ 44100 Hz • stereo; 24.94 MB (26 147 180 B)]
    08. Koyoi no Tsuki no You ni.flac [04:51.267; FLAC • 803 kbps • 16 bit \ 44100 Hz • stereo; 27.88 MB (29 238 607 B)]
    09. Precious.flac [05:27.493; FLAC • 991 kbps • 16 bit \ 44100 Hz • stereo; 38.69 MB (40 573 160 B)]
    10. Change the World.flac [03:45.613; FLAC • 921 kbps • 16 bit \ 44100 Hz • stereo; 24.78 MB (25 981 438 B)]
Accuracy: -m0
File 01. Poker Face               - 100% CDDA [04:14:49]
File 02. Viva la vida             - 100% CDDA [04:45:34]
File 03. Mata Kimi ni Koishiteru  - 100% CDDA [04:42:33]
File 04. Crazy in Love            -  99% CDDA [03:48:26]
File 05. Mikazuki                 - 100% CDDA [04:45:16]
File 06. ORION                    - 100% CDDA [05:48:21]
File 07. I Will Always Love You   - 100% CDDA [03:49:49]
File 08. Koyoi no Tsuki no You ni -  99% CDDA [04:51:20]
File 09. Precious                 -  99% CDDA [05:27:37]
File 10. Change the World         -  99% CDDA [03:45:46]
————— Summary: —————
These tracks looks like CDDA with probability 100%.
————————————————————————————————————————————————————————————————————————
ANALYZER:
    auCDtect: CD records authenticity detector, version 0.8.2
    Copyright (c) 2004 Oleg Berngardt. All rights reserved.
    Copyright (c) 2004 Alexander Djourik. All rights reserved.
Time elapsed: 2 m 40 s
Log created at October 15, 2020 17:50:31
=== 90B4893114C675954003188102D71C7576F4FFBF66FE88002395D2CA38BA50B5 ===
https://jpop.fandom.com/wiki/Your_favorite_things
Your favorite things is the second cover album by Aimer.
Tracklist
Poker Face (Lady Gaga cover)
Viva La Vida (Coldplay cover)
Mata Kimi ni Koishiteru (また君に恋してる; I'm Falling in Love With You Again) (Sakamoto Fuyumi cover)
Crazy in Love (Beyonce cover)
Mikazuki (三日月; Crescent Moon) (Ayaka cover)
ORION (Nakashima Mika cover)
I Will Always Love You (Whitney Houston cover)
Koyoi no Tsuki no You ni (今宵の月のように; Like the Moon Tonight) (Elephant Kashimashi cover)
Precious (Ito Yuna cover)
Change the World (Eric Clapton cover)
Format
Digital Download
Правила, инструкции, FAQ!!!
Торрент  Добавлен [16 окт 2020, 21:21] Скачать торрент Магнет ссылка
Скачать торрент
[ Размер 12.29 КБ / Просмотров 1 ]

Статус
Проверен 
 
Размер  288.75 МБ
Приватный: Нет (DHT включён)
.torrent скачан  0
 


     Отправить личное сообщение
   
Страница 1 из 1
Показать сообщения за:  Поле сортировки  
Начать новую тему Ответить на тему


Сейчас этот форум просматривают: нет зарегистрированных пользователей и гости: 0


Вы не можете начинать темы
Вы не можете отвечать на сообщения
Вы не можете редактировать свои сообщения
Вы не можете удалять свои сообщения
Вы не можете добавлять вложения

Перейти:  
cron