Начать новую тему Ответить на тему
Статистика раздачи
Размер: 4.1 ГБ | Добавлен: 16 янв 2021, 06:35 | Скачали: 1
Сидеров: 15  [2.68 КБ/сек]    Личеров: 5  [0 байт/сек]
Пред. тема | След. тема 

Автор
Сообщение

СообщениеДобавлено: 16 янв 2021, 06:35 

Ответить с цитатой 

The Absolute Sound - 13 CD

TAS 2008 — 2020


Жанр: Jazz, Soul, Classical
Годы издания: 2009-2020
Издатель / мастеринг: Aurora / Stockfisch
Аудиокодек: FLAC (*.flac)
Тип рипов: image+.cue
Продолжительность: 13:21:07 (13 CD)
Источник: интернет
Наличие сканов в раздаче: да

#777
Год издания: 2009
Номер по каталогу: AR0020
Продолжительность: 01:04:01
Трэклист:
01. Paganini: Violin Concerto No.4 In D Minor M.S. 60 (03:38)
Massimo Quarta
02. Melody Of Life (03:51)
Lynn Hilary
03. Purple Rain (07:30)
David Munyon
04. Desperado (04:18)
Malene Mortensen
05. The White Hotel (04:07)
Paul Banks
06. My Foolish Heart (05:07)
Renato Sellani & Danilo Rea
07. In My Life (03:07)
Veronica Mortensen
08. Softly As In A Morning Sunrise (05:27)
Eddie Higgins Quintet
09. All I Want (04:00)
Malene Mortensen
10. Rossini: Un Mot A Paganini (08:14)
Salvatore Accardo
11. A Sad Little Waltz (02:50)
Ab Und Zu
12. The Tennessee Waltz (05:07)
Allan Taylor & Chris Jones
13. Don't I Know You From Somewhere (04:01)
Sara K.
14. 500 Miles (02:39)
David Munyon
Код:
REM GENRE Hi-Fi
REM DATE 2009
PERFORMER "Various Artists"
TITLE "The Absolute Sound 2008"
FILE "TAS 2008.flac" WAVE
  TRACK 01 AUDIO
    TITLE "Paganini: Violin Concerto No.4 In D Minor M.S. 60"
    PERFORMER "Massimo Quarta"
    INDEX 01 00:00:00
  TRACK 02 AUDIO
    TITLE "Melody Of Life"
    PERFORMER "Lynn Hilary"
    INDEX 01 03:38:66
  TRACK 03 AUDIO
    TITLE "Purple Rain"
    PERFORMER "David Munyon"
    INDEX 01 07:30:54
  TRACK 04 AUDIO
    TITLE "Desperado"
    PERFORMER "Malene Mortensen"
    INDEX 01 15:01:13
  TRACK 05 AUDIO
    TITLE "The White Hotel"
    PERFORMER "Paul Banks"
    INDEX 01 19:19:35
  TRACK 06 AUDIO
    TITLE "My Foolish Heart"
    PERFORMER "Renato Sellani & Danilo Rea"
    INDEX 01 23:26:54
  TRACK 07 AUDIO
    TITLE "In My Life"
    PERFORMER "Veronica Mortensen"
    INDEX 01 28:34:46
  TRACK 08 AUDIO
    TITLE "Softly As In A Morning Sunrise"
    PERFORMER "Eddie Higgins Quintet"
    INDEX 01 31:41:53
  TRACK 09 AUDIO
    TITLE "All I Want"
    PERFORMER "Malene Mortensen"
    INDEX 01 37:08:56
  TRACK 10 AUDIO
    TITLE "Rossini: Un Mot A Paganini"
    PERFORMER "Salvatore Accardo"
    INDEX 01 41:08:60
  TRACK 11 AUDIO
    TITLE "A Sad Little Waltz"
    PERFORMER "Ab Und Zu"
    INDEX 01 49:23:03
  TRACK 12 AUDIO
    TITLE "The Tennessee Waltz"
    PERFORMER "Allan Taylor & Chris Jones"
    INDEX 01 52:13:29
  TRACK 13 AUDIO
    TITLE "Don't I Know You From Somewhere"
    PERFORMER "Sara K."
    INDEX 01 57:20:56
  TRACK 14 AUDIO
    TITLE "500 Miles"
    PERFORMER "David Munyon"
    INDEX 01 61:22:22
Код:
-----------------------
DON'T MODIFY THIS FILE
-----------------------
PERFORMER: auCDtect Task Manager, ver. 1.6.0 RC1 build 1.6.0.1
Copyright (c) 2008-2010 y-soft. All rights reserved
[url=http://y-soft.org]http://y-soft.org[/url]
ANALYZER: auCDtect: CD records authenticity detector, version 0.8.2
Copyright (c) 2004 Oleg Berngardt. All rights reserved.
Copyright (c) 2004 Alexander Djourik. All rights reserved.
FILE: TAS 2008.flac
  Size: 344166270 Hash: BFECF331ECC13D7D54726840AC1D3880 Accuracy: -m0
  Conclusion: CDDA 100%
  Signature: 292C7357E93F323205540C4C2118F313A6E2CF81
#777
Год издания: 2010
Номер по каталогу: AR0022
Продолжительность: 00:58:12
Трэклист:
01. Hjarpestel (04:12)
Majorstuen
02. Summertime (04:39)
Duo Balance
03. Dedicated To... (04:52)
Allan Taylor
04. Loveless Café (04:34)
Siri Gjære
05. Rotos En El Raval (04:00)
Otros Aires
06. Miami Beach Rumba (05:08)
John Di Martino & Romantic Jazz Trio
07. Time (04:18)
Solveig Slettahjell
08. Berlin At 5 (04:36)
Paul O'Brien
09. Another January (03:32)
Vonda Shepard
10. You Never Told Me (03:30)
Renato Sellani & Danilo Rea
11. Shanagolden (03:58)
Liz Madden
12. Chopin: Nocturne Op. 9, No. 2 Eb Major (04:42)
Gergely Bogányi
13. Paganini: Sonata For Violin And Guitar - Sei Sonate Op.3 (Op.10) M.S. 27 (03:48)
Luigi Alberta Bianchi & Maurizio Preda
14. Puccini: Gianni Schicchi "O Mio Babbino Caro" (02:18)
Amarilli Nizza
Код:
PERFORMER "Various"
TITLE "The Absolute Sound 2009"
REM DATE 2010
REM DISCID BE0DA40E
REM COMMENT "ExactAudioCopy v0.99pb4"
FILE "TAS 2009.flac" WAVE
  TRACK 01 AUDIO
    TITLE "Hjarpestel"
    PERFORMER "Majorstuen"
    INDEX 01 00:00:00
  TRACK 02 AUDIO
    TITLE "Summertime"
    PERFORMER "Duo Balance"
    INDEX 00 04:11:42
    INDEX 01 04:12:65
  TRACK 03 AUDIO
    TITLE "Dedicated To..."
    PERFORMER "Allan Taylor"
    INDEX 00 08:50:40
    INDEX 01 08:52:12
  TRACK 04 AUDIO
    TITLE "Loveless Café"
    PERFORMER "Siri Gjære"
    INDEX 00 13:43:64
    INDEX 01 13:44:67
  TRACK 05 AUDIO
    TITLE "Rotos En El Raval"
    PERFORMER "Otros Aires"
    INDEX 01 18:18:72
  TRACK 06 AUDIO
    TITLE "Miami Beach Rumba"
    PERFORMER "John Di Martino & Romantic Jazz Trio"
    INDEX 00 22:17:17
    INDEX 01 22:19:22
  TRACK 07 AUDIO
    TITLE "Time"
    PERFORMER "Solveig Slettahjell"
    INDEX 00 27:25:25
    INDEX 01 27:27:67
  TRACK 08 AUDIO
    TITLE "Berlin At 5"
    PERFORMER "Paul O'Brien"
    INDEX 00 31:44:42
    INDEX 01 31:46:10
  TRACK 09 AUDIO
    TITLE "Another January"
    PERFORMER "Vonda Shepard"
    INDEX 00 36:20:57
    INDEX 01 36:22:62
  TRACK 10 AUDIO
    TITLE "You Never Told Me"
    PERFORMER "Renato Sellani & Danilo Rea"
    INDEX 00 39:53:65
    INDEX 01 39:54:72
  TRACK 11 AUDIO
    TITLE "Shanagolden"
    PERFORMER "Liz Madden"
    INDEX 00 43:24:12
    INDEX 01 43:25:40
  TRACK 12 AUDIO
    TITLE "Chopin: Nocturne Op. 9, No. 2 Eb Major"
    PERFORMER "Gergely Bogányi"
    INDEX 00 47:21:47
    INDEX 01 47:23:45
  TRACK 13 AUDIO
    TITLE "Paganini: Sonata For Violin And Guitar - Sei Sonate Op.3 (Op.10) M.S. 27"
    PERFORMER "Luigi Alberta Bianchi & Maurizio Preda"
    INDEX 00 52:04:07
    INDEX 01 52:06:00
  TRACK 14 AUDIO
    TITLE "Puccini: Gianni Schicchi ʺO Mio Babbino Caroʺ"
    PERFORMER "Amarilli Nizza"
    INDEX 00 55:52:34
    INDEX 01 55:54:25
Код:
-----------------------
DON'T MODIFY THIS FILE
-----------------------
PERFORMER: auCDtect Task Manager, ver. 1.6.0 RC1 build 1.6.0.1
Copyright (c) 2008-2010 y-soft. All rights reserved
[url=http://y-soft.org]http://y-soft.org[/url]
ANALYZER: auCDtect: CD records authenticity detector, version 0.8.2
Copyright (c) 2004 Oleg Berngardt. All rights reserved.
Copyright (c) 2004 Alexander Djourik. All rights reserved.
FILE: TAS 2009.flac
  Size: 320902999 Hash: 392E48ACE7DDB3DB2FAF4CF6BF88B35F Accuracy: -m0
  Conclusion: CDDA 100%
  Signature: 5C9622D25FA6AE410E71C5D14737152261E3E3A9
#777
Год издания: 2011
Номер по каталогу: AR0024
Продолжительность: 01:11:00
Трэклист:
01. Not Dark Yet (04:36)
Barb Jungr
02. Midnight Call (04:19)
Allan Taylor
03. He Won’t Send Roses (03:11)
Carol Kidd
04. Quien Sera (04:41)
John Di Martino & Romantic Jazz Trio
05. Everywhere (03:36)
Jimmy Jørgensen
06. Comment Te Dire Adieu (03:15)
Alice Carreri & String Swing
07. Pray It Never Happens (02:52)
Maeve O'Boyle
08. Two Of Us (03:47)
Steve Dobrogosz
09. Grace (05:38)
Paul Banks
10. Way Down In The Mines (03:56)
Carl Cleves & Parissa Bouas
11. Ô Traîneau Dans Le Ciel (03:52)
Maryse Letarte
12. True Colors (04:19)
Josefine Cronholm & IBIS
13. Isaac Albéniz: Iberia Book1-3 Fête-Dieu à Seville (09:23)
Artur Pizarro
14. Felix Mendelssohn: Violin Concerto In E Minor Allegro Molto Appassionato-Presto (13:31)
Joseph Swensen & Scottish Chamber Orchestra
Код:
REM DISCID CA10A40E
REM GENRE Hi-Fi
REM DATE 2011
PERFORMER "Various Artists"
TITLE "The Absolute Sound 2010"
FILE "TAS 2010.flac" WAVE
  TRACK 01 AUDIO
    TITLE "Not Dark Yet"
    PERFORMER "Barb Jungr"
    INDEX 01 00:00:00
  TRACK 02 AUDIO
    TITLE "Midnight Call"
    PERFORMER "Allan Taylor"
    INDEX 00 04:35:29
    INDEX 01 04:36:12
  TRACK 03 AUDIO
    TITLE "He Won’t Send Roses"
    PERFORMER "Carol Kidd"
    INDEX 00 08:53:43
    INDEX 01 08:55:19
  TRACK 04 AUDIO
    TITLE "Quien Sera"
    PERFORMER "John Di Martino & Romantic Jazz Trio"
    INDEX 00 12:05:00
    INDEX 01 12:06:66
  TRACK 05 AUDIO
    TITLE "Everywhere"
    PERFORMER "Jimmy Jørgensen"
    INDEX 00 16:46:17
    INDEX 01 16:47:71
  TRACK 06 AUDIO
    TITLE "Comment Te Dire Adieu"
    PERFORMER "Alice Carreri & String Swing"
    INDEX 00 20:23:42
    INDEX 01 20:24:10
  TRACK 07 AUDIO
    TITLE "Pray It Never Happens"
    PERFORMER "Maeve O'Boyle"
    INDEX 00 23:38:44
    INDEX 01 23:39:45
  TRACK 08 AUDIO
    TITLE "Two Of Us"
    PERFORMER "Steve Dobrogosz"
    INDEX 00 26:30:36
    INDEX 01 26:31:50
  TRACK 09 AUDIO
    TITLE "Grace"
    PERFORMER "Paul Banks"
    INDEX 00 30:18:61
    INDEX 01 30:19:48
  TRACK 10 AUDIO
    TITLE "Way Down In The Mines"
    PERFORMER "Carl Cleves & Parissa Bouas"
    INDEX 00 35:56:05
    INDEX 01 35:57:58
  TRACK 11 AUDIO
    TITLE "Ô Traîneau Dans Le Ciel"
    PERFORMER "Maryse Letarte"
    INDEX 01 39:54:17
  TRACK 12 AUDIO
    TITLE "True Colors"
    PERFORMER "Josefine Cronholm & IBIS"
    INDEX 00 43:46:10
    INDEX 01 43:46:41
  TRACK 13 AUDIO
    TITLE "Isaac Albéniz: Iberia Book1-3 Fête-Dieu à Seville"
    PERFORMER "Artur Pizarro"
    INDEX 00 48:05:24
    INDEX 01 48:05:46
  TRACK 14 AUDIO
    TITLE "Felix Mendelssohn: Violin Concerto In E Minor Allegro Molto Appassionato-Presto"
    PERFORMER "Joseph Swensen & Scottish Chamber Orchestra"
    INDEX 00 57:25:19
    INDEX 01 57:28:66
Код:
-----------------------
DON'T MODIFY THIS FILE
-----------------------
PERFORMER: auCDtect Task Manager, ver. 1.6.0 RC1 build 1.6.0.1
Copyright (c) 2008-2010 y-soft. All rights reserved
[url=http://y-soft.org]http://y-soft.org[/url]
ANALYZER: auCDtect: CD records authenticity detector, version 0.8.2
Copyright (c) 2004 Oleg Berngardt. All rights reserved.
Copyright (c) 2004 Alexander Djourik. All rights reserved.
FILE: TAS 2010.flac
  Size: 361447784 Hash: 67CCC9804490E2174760DEF1EEA0EE48 Accuracy: -m0
  Conclusion: CDDA 100%
  Signature: 4874D19C21D9443AAA9A8A92AB3F490CD3DAC41F
#777
Год издания: 2012
Номер по каталогу: AR0027
Продолжительность: 00:56:45
Трэклист:
01. Respighi:Antiche Arie E Danze-Suite N.3 - III.Siciliana (03:33)
Budapest Strings
02. The Moon Is A Harsh Mistress (03:11)
Radka Toneff & Steve Dobrogosz
03. When The Sunny Sky Has Gone (02:35)
Fiona Mackenzie
04. Funny How Times Slips Away (03:57)
Hanne Boel & Mario Biondi
05. Tchaikovsky: 6 Morceaux Op. 19 - Capriccioso (03:38)
Franco Trabucco
06. Scotty (03:24)
Allan Taylor
07. I Go (04:49)
Inger Marie Gundersen
08. Factory Girl (03:18)
Beoga
09. Baby It's Cold Outside (03:30)
Eugene Ruffolo & Margaret Fiellin
10. I'll Be There (04:23)
The Piano
11. God Bless The Child (06:03)
Kira
12. Sara (05:02)
Barb Jungr
13. Paganini: Three Duets For Violin And Bassoon M.S.130 (05:48)
Salvatore Accardo, Claudio Gonella & Bruno Canino
14. Mado Kara Mieru (03:30)
Christopher Tin
Код:
REM DATE 2012
PERFORMER "Various Artists"
TITLE "The Absolute Sound 2011"
FILE "TAS 2011.flac" WAVE
  TRACK 01 AUDIO
    TITLE "Respighi:Antiche Arie E Danze-Suite N.3 - III.Siciliana"
 PERFORMER "Budapest Strings"
    INDEX 01 00:00:00
  TRACK 02 AUDIO
    TITLE "The Moon Is A Harsh Mistress"
 PERFORMER "Radka Toneff & Steve Dobrogosz"
    INDEX 01 03:33:45
  TRACK 03 AUDIO
    TITLE "When The Sunny Sky Has Gone"
 PERFORMER "Fiona Mackenzie"
    INDEX 01 06:44:72
  TRACK 04 AUDIO
    TITLE "Funny How Times Slips Away"
 PERFORMER "Hanne Boel & Mario Biondi"
    INDEX 01 09:20:09
  TRACK 05 AUDIO
    TITLE "Tchaikovsky: 6 Morceaux Op. 19 - Capriccioso"
 PERFORMER "Franco Trabucco"
    INDEX 01 13:17:28
  TRACK 06 AUDIO
    TITLE "Scotty"
 PERFORMER "Allan Taylor"
    INDEX 01 16:55:46
  TRACK 07 AUDIO
    TITLE "I Go"
 PERFORMER "Inger Marie Gundersen"
    INDEX 01 20:19:50
  TRACK 08 AUDIO
    TITLE "Factory Girl"
 PERFORMER "Beoga"
    INDEX 01 25:09:16
  TRACK 09 AUDIO
    TITLE "Baby It's Cold Outside"
 PERFORMER "Eugene Ruffolo & Margaret Fiellin"
    INDEX 01 28:27:23
  TRACK 10 AUDIO
    TITLE "I'll Be There"
 PERFORMER "The Piano"
    INDEX 01 31:57:46
  TRACK 11 AUDIO
    TITLE "God Bless The Child"
 PERFORMER "Kira"
    INDEX 01 36:20:71
  TRACK 12 AUDIO
    TITLE "Sara"
 PERFORMER "Barb Jungr"
    INDEX 01 42:24:16
  TRACK 13 AUDIO
    TITLE "Paganini: Three Duets For Violin And Bassoon M.S.130"
 PERFORMER "Salvatore Accardo, Claudio Gonella & Bruno Canino"
    INDEX 01 47:26:69
  TRACK 14 AUDIO
    TITLE "Mado Kara Mieru"
 PERFORMER "Christopher Tin"
    INDEX 01 53:15:06
Код:
-----------------------
DON'T MODIFY THIS FILE
-----------------------
PERFORMER: auCDtect Task Manager, ver. 1.6.0 RC1 build 1.6.0.1
Copyright (c) 2008-2010 y-soft. All rights reserved
[url=http://y-soft.org]http://y-soft.org[/url]
ANALYZER: auCDtect: CD records authenticity detector, version 0.8.2
Copyright (c) 2004 Oleg Berngardt. All rights reserved.
Copyright (c) 2004 Alexander Djourik. All rights reserved.
FILE: TAS 2011.flac
  Size: 304278355 Hash: FB0BB4E745BBFB622CA849E16ABFB0EC Accuracy: -m0
  Conclusion: CDDA 99%
  Signature: 8B8658717F613AF31123751CA3896DE3BCCA3A99
#777
Год издания: 2013
Номер по каталогу: AR0030
Продолжительность: 00:52:32
Трэклист:
01. Njaalkeme (04:54)
Garmana
02. Sakura Sakura (03:24)
Nicki Parrott
03. Down The Years I Travelled (04:02)
Allan Taylor
04. There You Are (05:44)
Brooke Miller
05. Love Is An Ugly Dog (03:14)
Jimmy Jørgensen
06. Chelsea Hotel (04:00)
Liz Madden
07. Aus Dem Beton (04:15)
Katja Maria Werker
08. All My Sins (03:41)
Maeve O'Boyle
09. Downtown (03:09)
Nicki Parrott
10. Too Late Now (03:48)
Derek Smith
11. Crazy Love (03:37)
Paul Banks
12. Love Go Round (01:51)
Sarah Moule
13. Bleu (03:33)
Majorstuen
14. Respighi: Antiche Arie E Danze - Suite N. 3 - I. Italiana (03:14)
Budapest Strings
Код:
REM GENRE Hi-Fi
REM DATE 2013
PERFORMER "Various Artists"
TITLE "The Absolute Sound 2012"
FILE "TAS 2012.flac" WAVE
  TRACK 01 AUDIO
    TITLE "Njaalkeme"
    PERFORMER "Garmana"
    INDEX 01 00:00:00
  TRACK 02 AUDIO
    TITLE "Sakura Sakura"
    PERFORMER "Nicki Parrott"
    INDEX 01 04:54:27
  TRACK 03 AUDIO
    TITLE "Down The Years I Travelled"
    PERFORMER "Allan Taylor"
    INDEX 01 08:18:55
  TRACK 04 AUDIO
    TITLE "There You Are"
    PERFORMER "Brooke Miller"
    INDEX 01 12:21:31
  TRACK 05 AUDIO
    TITLE "Love Is An Ugly Dog"
    PERFORMER "Jimmy Jørgensen"
    INDEX 01 18:05:51
  TRACK 06 AUDIO
    TITLE "Chelsea Hotel"
    PERFORMER "Liz Madden"
    INDEX 01 21:20:25
  TRACK 07 AUDIO
    TITLE "Aus Dem Beton"
    PERFORMER "Katja Maria Werker"
    INDEX 01 25:21:12
  TRACK 08 AUDIO
    TITLE "All My Sins"
    PERFORMER "Maeve O'Boyle"
    INDEX 01 29:36:59
  TRACK 09 AUDIO
    TITLE "Downtown"
    PERFORMER "Nicki Parrott"
    INDEX 01 33:17:59
  TRACK 10 AUDIO
    TITLE "Too Late Now"
    PERFORMER "Derek Smith"
    INDEX 01 36:26:59
  TRACK 11 AUDIO
    TITLE "Crazy Love"
    PERFORMER "Paul Banks"
    INDEX 01 40:15:00
  TRACK 12 AUDIO
    TITLE "Love Go Round"
    PERFORMER "Sarah Moule"
    INDEX 01 43:52:09
  TRACK 13 AUDIO
    TITLE "Bleu"
    PERFORMER "Majorstuen"
    INDEX 01 45:43:47
  TRACK 14 AUDIO
    TITLE "Respighi: Antiche Arie E Danze - Suite N. 3 - I. Italiana"
    PERFORMER "Budapest Strings"
    INDEX 01 49:17:23
Код:
-----------------------
DON'T MODIFY THIS FILE
-----------------------
PERFORMER: auCDtect Task Manager, ver. 1.6.0 RC1 build 1.6.0.1
Copyright (c) 2008-2010 y-soft. All rights reserved
[url=http://y-soft.org]http://y-soft.org[/url]
ANALYZER: auCDtect: CD records authenticity detector, version 0.8.2
Copyright (c) 2004 Oleg Berngardt. All rights reserved.
Copyright (c) 2004 Alexander Djourik. All rights reserved.
FILE: TAS 2012.flac
  Size: 285502595 Hash: E4D7EFB5E91961FF0D25D55C2DDF3250 Accuracy: -m0
  Conclusion: CDDA 100%
  Signature: DA7A32179EF835DA06F85DBC061DD3D790F2F93E
#777
Год издания: 2014
Номер по каталогу: AR0031
Продолжительность: 00:49:32
Трэклист:
01. Propinan De Melyor (02:00)
New London Consort
02. The Blackwood (02:42)
Emily Barker & The Red Clay Halo
03. Looking For You (04:26)
Allan Taylor
04. Ancient Air ~ Chopin: Krakowiak, Op. 14 In F Major (02:12)
John Di Martino's Romantic Jazz Trio
05. For No One (02:30)
Nicki Parrott & Ken Peplowski
06. Poema (02:54)
Otros Aires
07. Man In The Station (03:44)
Claire Martin & John Martyn
08. When We Were Gentle (02:44)
Kira Skov
09. Prayers Of Elvis Presley (05:22)
David Munyon
10. If I Die Young (03:39)
Liz Madden
11. Kalkbrenner: Piano Sonata 3 In G Major (04:53)
Luigi Gerosa
12. Sonny's Dream (04:11)
Paul O'Brien
13. Away In A Manger (05:29)
Bin Huang
14. Noël Nouvelet (02:38)
Liz Madden
Код:
Exact Audio Copy V0.99 prebeta 4 from 23. January 2008
EAC 抓取日志文件从2. 三月 2014, 9:58
Various / 未知标题
使用驱动器  :HL-DT-STDVD-ROM DH10N   Adapter: 1  ID: 0
读取模式     : 保护
使用精确流   : 是
废除音频缓冲 : 是
使用 C2 指针 : 否
读取偏移校正                   : 102
读取 Lead-In 和 Lead-Out       : 否
用静音填充抓取中丢失偏移的采样 : 是
去除首尾静音块                 : 否
在 CRC 计算中使用了空样本      : 否
已用接口                       : Win NT 及 2000 本地 Win32 接口
所用输出格式 : 内部 WAV 函数
样本格式     : 44.100 Hz;16 Bit;立体声
被抓轨 CD 的 TOC
     音轨 |   开始   |   长度   | 起始扇区 | 结尾扇区
    --------------------------------------------------
       1  |  0:00.00 |  2:00.61 |       0  |    9060
       2  |  2:00.61 |  2:42.20 |    9061  |   21230
       3  |  4:43.06 |  4:26.70 |   21231  |   41250
       4  |  9:10.01 |  2:12.56 |   41251  |   51206
       5  | 11:22.57 |  2:30.50 |   51207  |   62506
       6  | 13:53.32 |  2:54.69 |   62507  |   75625
       7  | 16:48.26 |  3:44.60 |   75626  |   92485
       8  | 20:33.11 |  2:44.12 |   92486  |  104797
       9  | 23:17.23 |  5:22.01 |  104798  |  128948
      10  | 28:39.24 |  3:39.19 |  128949  |  145392
      11  | 32:18.43 |  4:53.44 |  145393  |  167411
      12  | 37:12.12 |  4:11.58 |  167412  |  186294
      13  | 41:23.70 |  5:29.40 |  186295  |  211009
      14  | 46:53.35 |  2:38.63 |  211010  |  222922
范围状态及错误
已选择范围
     文件名 F:\未传音乐\[絕對的聲音全集之十五-TAS2013][HDCD論壇][左右手原抓]\Various - 未知标题.wav
     峰值电平 94.4 %
     范围质量 99.9 %
     复制 CRC 1C765643
     复制成功
没有错误发生
AccurateRip 概要
音轨  1  无法精确校验 (确认 1)  [0109C9E0], AccurateRip 返回 [FA104148]
音轨  2  无法精确校验 (确认 1)  [88328D89], AccurateRip 返回 [72130240]
音轨  3  无法精确校验 (确认 1)  [64EFFEC5], AccurateRip 返回 [C744D6A9]
音轨  4  无法精确校验 (确认 1)  [96D87DD1], AccurateRip 返回 [6CD2F564]
音轨  5  无法精确校验 (确认 1)  [53337D3A], AccurateRip 返回 [153148BB]
音轨  6  无法精确校验 (确认 1)  [99304F2D], AccurateRip 返回 [2D6BB722]
音轨  7  无法精确校验 (确认 1)  [F418F950], AccurateRip 返回 [F766852D]
音轨  8  无法精确校验 (确认 1)  [E44438C8], AccurateRip 返回 [6306B648]
音轨  9  无法精确校验 (确认 1)  [3B12FE6E], AccurateRip 返回 [AF9D4AF2]
音轨 10  无法精确校验 (确认 1)  [FC71DB41], AccurateRip 返回 [899901F1]
音轨 11  无法精确校验 (确认 1)  [7A1FCCE9], AccurateRip 返回 [63561747]
音轨 12  无法精确校验 (确认 1)  [BF78F48E], AccurateRip 返回 [7F983744]
音轨 13  无法精确校验 (确认 1)  [8D05CDF4], AccurateRip 返回 [782C4923]
音轨 14  无法精确校验 (确认 1)  [9B0F5970], AccurateRip 返回 [C50DD528]
没有音轨被精确验证
你可能遇到在数据库中的一词多义
状态报告结尾
Код:
REM DISCID AE0B9C0E
REM DATE 2014
REM COMMENT ExactAudioCopy v0.99pb4
PERFORMER "Various Artists"
TITLE "The Absolute Sound 2013"
FILE "TAS 2013.flac" WAVE
  TRACK 01 AUDIO
    TITLE "Propinan De Melyor"
 PERFORMER "New London Consort"
    INDEX 01 00:00:00
  TRACK 02 AUDIO
    TITLE "The Blackwood"
 PERFORMER "Emily Barker & The Red Clay Halo"
    INDEX 01 02:00:61
  TRACK 03 AUDIO
    TITLE "Looking For You"
 PERFORMER "Allan Taylor"
    INDEX 01 04:43:06
  TRACK 04 AUDIO
    TITLE "Ancient Air ~ Chopin: Krakowiak, Op. 14 In F Major"
 PERFORMER "John Di Martino's Romantic Jazz Trio"
    INDEX 01 09:10:01
  TRACK 05 AUDIO
    TITLE "For No One"
 PERFORMER "Nicki Parrott & Ken Peplowski"
    INDEX 01 11:22:57
  TRACK 06 AUDIO
    TITLE "Poema"
 PERFORMER "Otros Aires"
    INDEX 00 13:51:59
    INDEX 01 13:53:32
  TRACK 07 AUDIO
    TITLE "Man In The Station"
 PERFORMER "Claire Martin & John Martyn"
    INDEX 01 16:48:26
  TRACK 08 AUDIO
    TITLE "When We Were Gentle"
 PERFORMER "Kira Skov"
    INDEX 01 20:33:11
  TRACK 09 AUDIO
    TITLE "Prayers Of Elvis Presley"
 PERFORMER "David Munyon"
    INDEX 01 23:17:23
  TRACK 10 AUDIO
    TITLE "If I Die Young"
 PERFORMER "Liz Madden"
    INDEX 01 28:39:24
  TRACK 11 AUDIO
    TITLE "Kalkbrenner: Piano Sonata 3 In G Major"
 PERFORMER "Luigi Gerosa"
    INDEX 00 32:15:24
    INDEX 01 32:18:43
  TRACK 12 AUDIO
    TITLE "Sonny's Dream"
 PERFORMER "Paul O'Brien"
    INDEX 00 37:09:44
    INDEX 01 37:12:12
  TRACK 13 AUDIO
    TITLE "Away In A Manger"
 PERFORMER "Bin Huang"
    INDEX 01 41:23:70
  TRACK 14 AUDIO
    TITLE "Noël Nouvelet"
 PERFORMER "Liz Madden"
    INDEX 00 46:51:21
    INDEX 01 46:53:35
Код:
-----------------------
DON'T MODIFY THIS FILE
-----------------------
PERFORMER: auCDtect Task Manager, ver. 1.6.0 RC1 build 1.6.0.1
Copyright (c) 2008-2010 y-soft. All rights reserved
[url=http://y-soft.org]http://y-soft.org[/url]
ANALYZER: auCDtect: CD records authenticity detector, version 0.8.2
Copyright (c) 2004 Oleg Berngardt. All rights reserved.
Copyright (c) 2004 Alexander Djourik. All rights reserved.
FILE: TAS 2013.flac
  Size: 277241875 Hash: CAD44648D65562921F484268FFA27A3D Accuracy: -m0
  Conclusion: CDDA 100%
  Signature: BE3D40B891744AE3F495DB9200F76D1B1FC60CBA
#777
Год издания: 2015
Номер по каталогу: AR0032
Продолжительность: 01:08:00
Трэклист:
01. Paganini: Sonata With Variations M.S. 132 - Variation No. 2 (01:25)
Stefano Delle Donne, Marco Scicli, Adriano Sebastiani, Damiano Puliti
02. Aheyla - I Rejoice (05:09)
Carl Cleves & Parissa Bouas
03. Caledonia (04:47)
Dougie Maclean & Royal Scottish National Orchestra
04. Can’t Believe You Just Did It Again (04:47)
Ned Ferm & Kira Skov
05. The Man Who Sold The World (04:16)
Claire Martin
06. L'Eau À La Bouche (02:29)
Serge Gainsbourg
07. Buttons And Bows (02:06)
Dinah Shore
08. Schumann: Symphony No. 3 In E Flat Major Op. 97 "Rhenish" II. Scherzo: Sehr Mäßig (06:02)
Robin Ticciati & Scottish Chamber Orchestra
09. Sleeping Horses (03:05)
Emily Barker & The Red Clay Halo
10. Caruso (06:05)
Christian Willisohn
11. Always On My Mind (05:17)
Inger Marie Gundersen
12. Respighi: Sonata In B Minor For Violin And Piano II. Andante Espressivo (09:22)
Franco Gulli, Enrica Cavallo
13. Chopin: Piano Concerto No. 2 In F Minor Op. 21 III. Allegro Vivace (08:52)
Ingrid Fliter & Scottish Chamber Orchestra
14. Dvořák: Serenade For Strings In E Major Op. 22 I. Moderato (04:11)
Boris Monoszon & Solisti Di Praga
Код:
Exact Audio Copy V1.0 beta 3 from 29. August 2011
EAC 抓取日志文件从17. 二月 2015, 11:46
Various Artists / The Absolute Sound 2014
使用驱动器  :TSSTcorpDVD+-RW SH-216DB   Adapter: 1  ID: 0
读取模式      : 可靠Secure
使用精确流     : 是
清空音频缓存    : 是
使用 C2 指示器 : 否
读取偏移校正:               : 6
读取 Lead-In 和 Lead-Out : 否
用静音填充抓取中丢失偏移的采样       : 是
去除首尾静音块               : 否
 在CRC 计算中使用了空样本       : 是
已用接口                  : Win NT 及 2000 本地 Win32 接口
所用输出模式: : 内部 WAV 函数
样本格式    : 44.100 Hz; 16 Bit; 立体声
已抓取 CD 的 TOC
     音轨 |    起始    |    长度    |  起始扇区  |  结束扇区
    --------------------------------------------
      1 |  0:00.00 |  1:25.23 |      0 |   6397
      2 |  1:25.23 |  5:09.29 |   6398 |  29601
      3 |  6:34.52 |  4:47.69 |  29602 |  51195
      4 | 11:22.46 |  4:47.61 |  51196 |  72781
      5 | 16:10.32 |  4:16.51 |  72782 |  92032
      6 | 20:27.08 |  2:29.47 |  92033 | 103254
      7 | 22:56.55 |  2:06.04 | 103255 | 112708
      8 | 25:02.59 |  6:02.60 | 112709 | 139918
      9 | 31:05.44 |  3:05.11 | 139919 | 153804
     10 | 34:10.55 |  6:05.58 | 153805 | 181237
     11 | 40:16.38 |  5:17.42 | 181238 | 205054
     12 | 45:34.05 |  9:22.57 | 205055 | 247261
     13 | 54:56.62 |  8:52.01 | 247262 | 287162
     14 | 63:48.63 |  4:11.24 | 287163 | 306011
范围状态及错误
已选择范围
     文件名 E:\未传音乐\[絕對的聲音全集之十六-TAS2014][HDCD論壇][左右手原抓]\Various Artists - The Absolute Sound 2014.wav
     峰值电平 94.4 %
     抓取速度 3.2 X
     范围质量 100.0 %
     复制 CRC 57DDD672
     复制成功
没有错误发生
AccurateRip 摘要
音轨  1  在数据库中不存在
音轨  2  在数据库中不存在
音轨  3  在数据库中不存在
音轨  4  在数据库中不存在
音轨  5  在数据库中不存在
音轨  6  在数据库中不存在
音轨  7  在数据库中不存在
音轨  8  在数据库中不存在
音轨  9  在数据库中不存在
音轨 10  在数据库中不存在
音轨 11  在数据库中不存在
音轨 12  在数据库中不存在
音轨 13  在数据库中不存在
音轨 14  在数据库中不存在
没有任何音轨在 AccurateRip 数据库中有记录
状态报告结尾
Код:
REM DATE 2015
REM DISCID D60FF00E
REM COMMENT "ExactAudioCopy v1.0b3"
PERFORMER "Various Artists"
TITLE "The Absolute Sound 2014"
FILE "TAS 2014.flac" WAVE
  TRACK 01 AUDIO
    TITLE "Paganini: Sonata With Variations M.S. 132 - Variation No. 2"
    PERFORMER "Stefano Delle Donne, Marco Scicli, Adriano Sebastiani, Damiano Puliti"
    INDEX 01 00:00:00
  TRACK 02 AUDIO
    TITLE "Aheyla - I Rejoice"
    PERFORMER "Carl Cleves & Parissa Bouas"
    INDEX 00 01:21:22
    INDEX 01 01:25:23
  TRACK 03 AUDIO
    TITLE "Caledonia"
    PERFORMER "Dougie Maclean & Royal Scottish National Orchestra"
    INDEX 00 06:33:19
    INDEX 01 06:34:52
  TRACK 04 AUDIO
    TITLE "Can’t Believe You Just Did It Again"
    PERFORMER "Ned Ferm & Kira Skov"
    INDEX 00 11:19:47
    INDEX 01 11:22:46
  TRACK 05 AUDIO
    TITLE "The Man Who Sold The World"
    PERFORMER "Claire Martin"
    INDEX 00 16:08:70
    INDEX 01 16:10:32
  TRACK 06 AUDIO
    TITLE "L'Eau À La Bouche"
    PERFORMER "Serge Gainsbourg"
    INDEX 00 20:24:17
    INDEX 01 20:27:08
  TRACK 07 AUDIO
    TITLE "Buttons And Bows"
    PERFORMER "Dinah Shore"
    INDEX 00 22:54:23
    INDEX 01 22:56:55
  TRACK 08 AUDIO
    TITLE "Schumann: Symphony No. 3 In E Flat Major Op. 97 ʺRhenishʺ II. Scherzo: Sehr Mäßig"
    PERFORMER "Robin Ticciati & Scottish Chamber Orchestra"
    INDEX 00 24:57:44
    INDEX 01 25:02:59
  TRACK 09 AUDIO
    TITLE "Sleeping Horses"
    PERFORMER "Emily Barker & The Red Clay Halo"
    INDEX 00 31:02:25
    INDEX 01 31:05:44
  TRACK 10 AUDIO
    TITLE "Caruso"
    PERFORMER "Christian Willisohn"
    INDEX 00 34:06:36
    INDEX 01 34:10:55
  TRACK 11 AUDIO
    TITLE "Always On My Mind"
    PERFORMER "Inger Marie Gundersen"
    INDEX 00 40:13:19
    INDEX 01 40:16:38
  TRACK 12 AUDIO
    TITLE "Respighi: Sonata In B Minor For Violin And Piano  II. Andante Espressivo"
    PERFORMER "Franco Gulli, Enrica Cavallo"
    INDEX 00 45:30:20
    INDEX 01 45:34:05
  TRACK 13 AUDIO
    TITLE "Chopin: Piano Concerto No. 2 In F Minor Op. 21  III. Allegro Vivace"
    PERFORMER "Ingrid Fliter & Scottish Chamber Orchestra"
    INDEX 00 54:52:25
    INDEX 01 54:56:62
  TRACK 14 AUDIO
    TITLE "Dvořák: Serenade For Strings In E Major Op. 22  I. Moderato"
    PERFORMER "Boris Monoszon & Solisti Di Praga"
    INDEX 00 63:45:59
    INDEX 01 63:48:63
Код:
-----------------------
DON'T MODIFY THIS FILE
-----------------------
PERFORMER: auCDtect Task Manager, ver. 1.6.0 RC1 build 1.6.0.1
Copyright (c) 2008-2010 y-soft. All rights reserved
[url=http://y-soft.org]http://y-soft.org[/url]
ANALYZER: auCDtect: CD records authenticity detector, version 0.8.2
Copyright (c) 2004 Oleg Berngardt. All rights reserved.
Copyright (c) 2004 Alexander Djourik. All rights reserved.
FILE: TAS 2014.flac
  Size: 352996995 Hash: A13B14666DFE2C22B161564053634C15 Accuracy: -m0
  Conclusion: CDDA 100%
  Signature: CCFFEB9AAAF71EC6EA17DD36ED609C0EE677F9E2
#777
Год издания: 2016
Номер по каталогу: AR0033
Продолжительность: 00:57:50
Трэклист:
01. A Red Dragonfly (01:55)
Gary Karr
02. Silver Dagger (04:21)
Shannon Lambert-Ryan
03. Here Comes The Sun (03:12)
Nicki Parrott
04. I Just Wasn't Made For These Times (04:43)
Joe Stilgoe & Liane Carroll
05. Begin The Beguine (05:03)
New York Trio
06. The Rest of Mine (04:37)
Malene Mortensen
07. Into The Light (04:01)
Carl Cleves & Parissa Bouas
08. Spooky International (04:05)
Ranagri
09. Lies Of Handsome Men (05:05)
Veronica Mortensen
10. Simple Man (02:29)
Jimmy Jørgensen
11. Just Like A Woman (04:29)
Dave's True Story
12. Schubert: Impromptu As-Dur D935,2 (06:35)
Peter Rösel
13. Berlioz: Les Nuits D’été, Op. 7 - I. Villanelle (02:16)
Karen Cargill, Robin Ticciati & Scottish Chamber Orchestra
14. My Old Kentucky Home. Good Night (05:00)
Gary Karr
Код:
REM DATE 2016
PERFORMER "Various"
TITLE "The Absolute Sound 2015"
FILE "TAS 2015.flac" WAVE
  TRACK 01 AUDIO
    TITLE "A Red Dragonfly"
 PERFORMER "Gary Karr"
    INDEX 01 00:00:00
  TRACK 02 AUDIO
    TITLE "Silver Dagger"
 PERFORMER "Shannon Lambert-Ryan"
    INDEX 01 01:54:51
  TRACK 03 AUDIO
    TITLE "Here Comes The Sun"
 PERFORMER "Nicki Parrott"
    INDEX 01 06:16:02
  TRACK 04 AUDIO
    TITLE "I Just Wasn't Made For These Times"
 PERFORMER "Joe Stilgoe & Liane Carroll"
    INDEX 01 09:27:71
  TRACK 05 AUDIO
    TITLE "Begin The Beguine"
 PERFORMER "New York Trio"
    INDEX 01 14:11:09
  TRACK 06 AUDIO
    TITLE "The Rest of Mine"
 PERFORMER "Malene Mortensen"
    INDEX 01 19:14:00
  TRACK 07 AUDIO
    TITLE "Into The Light"
 PERFORMER "Carl Cleves & Parissa Bouas"
    INDEX 01 23:51:00
  TRACK 08 AUDIO
    TITLE "Spooky International"
 PERFORMER "Ranagri"
    INDEX 01 27:51:55
  TRACK 09 AUDIO
    TITLE "Lies Of Handsome Men"
 PERFORMER "Veronica Mortensen"
    INDEX 01 31:56:38
  TRACK 10 AUDIO
    TITLE "Simple Man"
 PERFORMER "Jimmy Jørgensen"
    INDEX 01 37:01:10
  TRACK 11 AUDIO
    TITLE "Just Like A Woman"
 PERFORMER "Dave's True Story"
    INDEX 01 39:30:31
  TRACK 12 AUDIO
    TITLE "Schubert: Impromptu As-Dur D935,2"
 PERFORMER "Peter Rösel"
    INDEX 01 43:59:41
  TRACK 13 AUDIO
    TITLE "Berlioz: Les Nuits D’été, Op. 7 - I. Villanelle"
 PERFORMER "Karen Cargill, Robin Ticciati & Scottish Chamber Orchestra"
    INDEX 01 50:34:74
  TRACK 14 AUDIO
    TITLE "My Old Kentucky Home. Good Night"
 PERFORMER "Gary Karr"
    INDEX 01 52:50:60
Код:
-----------------------
DON'T MODIFY THIS FILE
-----------------------
PERFORMER: auCDtect Task Manager, ver. 1.6.0 RC1 build 1.6.0.1
Copyright (c) 2008-2010 y-soft. All rights reserved
[url=http://y-soft.org]http://y-soft.org[/url]
ANALYZER: auCDtect: CD records authenticity detector, version 0.8.2
Copyright (c) 2004 Oleg Berngardt. All rights reserved.
Copyright (c) 2004 Alexander Djourik. All rights reserved.
FILE: TAS 2015.flac
  Size: 280784194 Hash: 4273944DBA44D2454AE6AE0D84B1A04E Accuracy: -m0
  Conclusion: CDDA 100%
  Signature: D1D374585D8BD3E44DADC17A2A725345CEE817EB
#777
Год издания: 2017
Номер по каталогу: AR0034
Продолжительность: 00:57:33
Трэклист:
01. She Walks In Beauty (03:45)
Saby O'
02. The Last Rose Of Summer (03:31)
Gary Karr
03. Black River (03:54)
RUNA
04. Single Girl (03:46)
Mari Wilson, Barb Jungr, Claire Martin
05. Fadinho (03:25)
Diego Figueiredo
06. Ticket To Ride (03:47)
Nicki Parrott
07. Buenas Noches Mi Amor (02:49)
Dalida
08. For What It's Worth (04:41)
Allan Taylor
09. Rainbow's Gold (03:52)
The Greater Good
10. Your Very Soul (03:41)
Amy Duncan
11. Barcarolle (04:59)
Vladimir Shafranov Trio
12. Autumn In A Small Village (03:23)
Gary Karr
13. Tchaikovsky: Serenade For String - II. Valse (03:47)
Jonathan Morton, Scottish Ensemble
14. Pablo De Sarasate: Zigeunerweisen, Op. 20 (08:14)
Katherine Bryan
Код:
REM DATE 2017
PERFORMER "Various"
TITLE "The Absolute Sound 2016"
FILE "TAS 2016.flac" WAVE
  TRACK 01 AUDIO
    TITLE "She Walks In Beauty"
 PERFORMER "Saby O'"
    INDEX 01 00:00:00
  TRACK 02 AUDIO
    TITLE "The Last Rose Of Summer"
 PERFORMER "Gary Karr"
    INDEX 01 03:44:52
  TRACK 03 AUDIO
    TITLE "Black River"
 PERFORMER "RUNA"
    INDEX 01 07:15:44
  TRACK 04 AUDIO
    TITLE "Single Girl"
 PERFORMER "Mari Wilson, Barb Jungr, Claire Martin"
    INDEX 01 11:09:59
  TRACK 05 AUDIO
    TITLE "Fadinho"
 PERFORMER "Diego Figueiredo"
    INDEX 01 14:55:60
  TRACK 06 AUDIO
    TITLE "Ticket To Ride"
 PERFORMER "Nicki Parrott"
    INDEX 01 18:20:74
  TRACK 07 AUDIO
    TITLE "Buenas Noches Mi Amor"
 PERFORMER "Dalida"
    INDEX 01 22:07:57
  TRACK 08 AUDIO
    TITLE "For What It's Worth"
 PERFORMER "Allan Taylor"
    INDEX 01 24:56:74
  TRACK 09 AUDIO
    TITLE "Rainbow's Gold"
 PERFORMER "The Greater Good"
    INDEX 01 29:38:01
  TRACK 10 AUDIO
    TITLE "Your Very Soul"
 PERFORMER "Amy Duncan"
    INDEX 01 33:30:10
  TRACK 11 AUDIO
    TITLE "Barcarolle"
 PERFORMER "Vladimir Shafranov Trio"
    INDEX 01 37:10:53
  TRACK 12 AUDIO
    TITLE "Autumn In A Small Village"
 PERFORMER "Gary Karr"
    INDEX 01 42:09:37
  TRACK 13 AUDIO
    TITLE "Tchaikovsky: Serenade For String - II. Valse"
 PERFORMER "Jonathan Morton, Scottish Ensemble"
    INDEX 01 45:32:57
  TRACK 14 AUDIO
    TITLE "Pablo De Sarasate: Zigeunerweisen, Op. 20"
 PERFORMER "Katherine Bryan"
    INDEX 01 49:19:40
Код:
-----------------------
DON'T MODIFY THIS FILE
-----------------------
PERFORMER: auCDtect Task Manager, ver. 1.6.0 RC1 build 1.6.0.1
Copyright (c) 2008-2010 y-soft. All rights reserved
[url=http://y-soft.org]http://y-soft.org[/url]
ANALYZER: auCDtect: CD records authenticity detector, version 0.8.2
Copyright (c) 2004 Oleg Berngardt. All rights reserved.
Copyright (c) 2004 Alexander Djourik. All rights reserved.
FILE: TAS 2016.flac
  Size: 280631843 Hash: 127B1A758FB29F1B77EED137921E32E9 Accuracy: -m0
  Conclusion: CDDA 100%
  Signature: 6E19B0C08266293F87CACE0DF2881958B1B84615
#777
Год издания: 2018
Номер по каталогу: AR0035
Продолжительность: 00:58:36
Трэклист:
01. Por Una Cabeza (03:27)
Semmy Stahlhammer
02. Mozart: Le Nozze Di Figaro - Voi Che Sapete (02:57)
Elisabeth Schwarzkopf
03. Feet Of A Dancer (04:22)
Charlie McGettigan
04. Amico Mio (04:27)
Sara Indrio
05. Quicksilver Daydreams Of Maria (04:40)
Paal Flaata
06. Que Sera, Sera (02:58)
Nicki Parrott
07. Canadian Sunset (08:55)
Massimo Farao' Afro Cuban Piano Quartet
08. Take It Easy Boy, Boy (02:20)
Trio Neumann
09. Anything 'Bout June Again (04:18)
Hanne Sørvaag
10. Hotel Victoria (03:57)
Tango For 3
11. Skjærgårdsø (03:55)
Tove Karoline Knutsen
12. Golden Slumbers - Carry That Weight - The End (03:34)
Barb Jungr
13. Shimmering (04:48)
Ketil Bjørnstad
14. Pietro Mascagni: Cavalleria Rusticana - Intermezzo (03:58)
Andrea Licata, Royal Philharmonic Orchestra
Код:
Exact Audio Copy V1.3 from 2. September 2016
EAC 抓取日志文件从3. 三月 2018, 3:20
V.A. / The Absolute Sound 2017
使用驱动器  :YAMAHA  CRW-F1E   Adapter: 1  ID: 0
读取模式      : 可靠Secure
使用精确流     : 是
清空音频缓存    : 是
使用 C2 指示器 : 否
读取偏移校正:               : 733
读取 Lead-In 和 Lead-Out : 否
用静音填充抓取中丢失偏移的采样       : 是
去除首尾静音块               : 否
 在CRC 计算中使用了空样本       : 是
已用接口                  : Win NT 及 2000 本地 Win32 接口
所用输出模式: : 内部 WAV 函数
样本格式    : 44.100 Hz; 16 Bit; 立体声
已抓取 CD 的 TOC
     音轨 |    起始    |    长度    |  起始扇区  |  结束扇区
    --------------------------------------------
      1 |  0:00.00 |  3:26.74 |      0 |  15523
      2 |  3:26.74 |  2:57.24 |  15524 |  28822
      3 |  6:24.23 |  4:21.72 |  28823 |  48469
      4 | 10:46.20 |  4:27.22 |  48470 |  68516
      5 | 15:13.42 |  4:40.27 |  68517 |  89543
      6 | 19:53.69 |  2:57.39 |  89544 | 102857
      7 | 22:51.33 |  8:54.73 | 102858 | 142980
      8 | 31:46.31 |  2:20.34 | 142981 | 153514
      9 | 34:06.65 |  4:17.62 | 153515 | 172851
     10 | 38:24.52 |  3:57.11 | 172852 | 190637
     11 | 42:21.63 |  3:54.40 | 190638 | 208227
     12 | 46:16.28 |  3:33.43 | 208228 | 224245
     13 | 49:49.71 |  4:48.16 | 224246 | 245861
     14 | 54:38.12 |  3:57.65 | 245862 | 263701
范围状态及错误
已选择范围
     文件名 C:\Users\Administrator\Desktop\V.A. - The Absolute Sound 2017.wav
     峰值电平 94.4 %
     抓取速度 5.1 X
     范围质量 100.0 %
     复制 CRC BD7FBCD3
     复制成功
没有错误发生
AccurateRip 摘要
音轨  1  精确地校准抓取  1)  [2AE6E611]  (AR v2)
音轨  2  精确地校准抓取  1)  [3F27201D]  (AR v2)
音轨  3  精确地校准抓取  1)  [C79DF868]  (AR v2)
音轨  4  精确地校准抓取  1)  [762D724C]  (AR v2)
音轨  5  精确地校准抓取  1)  [ECAC5BD0]  (AR v2)
音轨  6  精确地校准抓取  1)  [F6EAE357]  (AR v2)
音轨  7  精确地校准抓取  1)  [2EA0E760]  (AR v2)
音轨  8  精确地校准抓取  1)  [2A657E6B]  (AR v2)
音轨  9  精确地校准抓取  1)  [646AAB0D]  (AR v2)
音轨 10  精确地校准抓取  1)  [35155EC4]  (AR v2)
音轨 11  精确地校准抓取  1)  [7E113472]  (AR v2)
音轨 12  精确地校准抓取  1)  [0F2B8000]  (AR v2)
音轨 13  精确地校准抓取  1)  [2738A46C]  (AR v2)
音轨 14  精确地校准抓取  1)  [422DF58D]  (AR v2)
所有音轨精确校准抓取
状态报告结尾
---- CUETools DB Plugin V2.1.6
[CTDB TOCID: VoPCi4QjxoKXhQ7ZuAPL.SYcrkM-] found
Submit result: VoPCi4QjxoKXhQ7ZuAPL.SYcrkM- has been confirmed
Track | CTDB Status
  1   | (12/12) Accurately ripped
  2   | (12/12) Accurately ripped
  3   | (12/12) Accurately ripped
  4   | (12/12) Accurately ripped
  5   | (12/12) Accurately ripped
  6   | (12/12) Accurately ripped
  7   | (12/12) Accurately ripped
  8   | (12/12) Accurately ripped
  9   | (12/12) Accurately ripped
 10   | (12/12) Accurately ripped
 11   | (12/12) Accurately ripped
 12   | (12/12) Accurately ripped
 13   | (12/12) Accurately ripped
 14   | (12/12) Accurately ripped
==== 记录校验日志 59EE518048651A7A34724510B20CD1DD62BD33087E7A9AE8E45C84BA6042FDB0 ====
Код:
REM DATE 2018
REM DISCID CF0DBC0E
REM COMMENT ExactAudioCopy v1.3
TITLE "The Absolute Sound 2017"
FILE "TAS 2017.flac" WAVE
  TRACK 01 AUDIO
    TITLE "Por Una Cabeza"
    PERFORMER "Semmy Stahlhammer"
    INDEX 01 00:00:00
  TRACK 02 AUDIO
    TITLE "Mozart: Le Nozze Di Figaro - Voi Che Sapete"
    PERFORMER "Elisabeth Schwarzkopf"
    INDEX 00 03:24:62
    INDEX 01 03:26:74
  TRACK 03 AUDIO
    TITLE "Feet Of A Dancer"
    PERFORMER "Charlie McGettigan"
    INDEX 00 06:22:56
    INDEX 01 06:24:23
  TRACK 04 AUDIO
    TITLE "Amico Mio"
    PERFORMER "Sara Indrio"
    INDEX 00 10:44:54
    INDEX 01 10:46:20
  TRACK 05 AUDIO
    TITLE "Quicksilver Daydreams Of Maria"
    PERFORMER "Paal Flaata"
    INDEX 00 15:12:28
    INDEX 01 15:13:42
  TRACK 06 AUDIO
    TITLE "Que Sera, Sera"
    PERFORMER "Nicki Parrott"
    INDEX 00 19:52:63
    INDEX 01 19:53:69
  TRACK 07 AUDIO
    TITLE "Canadian Sunset"
    PERFORMER "Massimo Farao' Afro Cuban Piano Quartet"
    INDEX 01 22:51:33
  TRACK 08 AUDIO
    TITLE "Take It Easy Boy, Boy"
    PERFORMER "Trio Neumann"
    INDEX 00 31:45:13
    INDEX 01 31:46:31
  TRACK 09 AUDIO
    TITLE "Anything 'Bout June Again"
    PERFORMER "Hanne Sørvaag"
    INDEX 00 34:05:54
    INDEX 01 34:06:65
  TRACK 10 AUDIO
    TITLE "Hotel Victoria"
    PERFORMER "Tango For 3"
    INDEX 00 38:23:15
    INDEX 01 38:24:52
  TRACK 11 AUDIO
    TITLE "Skjærgårdsø"
    PERFORMER "Tove Karoline Knutsen"
    INDEX 00 42:20:32
    INDEX 01 42:21:63
  TRACK 12 AUDIO
    TITLE "Golden Slumbers - Carry That Weight - The End"
    PERFORMER "Barb Jungr"
    INDEX 00 46:14:64
    INDEX 01 46:16:28
  TRACK 13 AUDIO
    TITLE "Shimmering"
    PERFORMER "Ketil Bjørnstad"
    INDEX 00 49:48:28
    INDEX 01 49:49:71
  TRACK 14 AUDIO
    TITLE "Pietro Mascagni: Cavalleria Rusticana - Intermezzo"
    PERFORMER "Andrea Licata, Royal Philharmonic Orchestra"
    INDEX 01 54:38:12
Код:
-----------------------
DON'T MODIFY THIS FILE
-----------------------
PERFORMER: auCDtect Task Manager, ver. 1.6.0 RC1 build 1.6.0.1
Copyright (c) 2008-2010 y-soft. All rights reserved
[url=http://y-soft.org]http://y-soft.org[/url]
ANALYZER: auCDtect: CD records authenticity detector, version 0.8.2
Copyright (c) 2004 Oleg Berngardt. All rights reserved.
Copyright (c) 2004 Alexander Djourik. All rights reserved.
FILE: TAS 2017.flac
  Size: 327133983 Hash: 058F897C72D053917BC79F808B275E78 Accuracy: -m0
  Conclusion: CDDA 100%
  Signature: 80560E5CBA327A9CCFB140BA8FC138DD4369DBDF
#777
Год издания: 2019
Номер по каталогу: AR0036
Продолжительность: 01:10:29
Трэклист:
01. Enrico Toselli: Serenata (03:45)
Arve Tellefsen
02. You Brought Me Up (04:29)
Méav Ní Mhaolchatha
03. God Morgen, Min Kjære (03:59)
Benny Borg
04. When All Is Said And Done (03:49)
Inger Marie Gundersen
05. One Last Look (03:33)
Amber Rubarth
06. The Band Played ‘Sweet Marie’ (04:49)
Reg Meuross
07. Tango Jalousie (04:35)
Arve Tellefsen
08. Come Tomorrow (03:07)
Paal Flaata & Maia Flaata
09. Englishman In New York (03:45)
Barb Jungr & John McDaniel
10. Changes (03:51)
Niclas Lundin & Kristin Amparo
11. The Miller Boy's Walking Tune (04:22)
Sigmund Groven
12. Sea Of Glass (05:11)
Saby O’
13. If Only (03:06)
Ketil Bjørnstad
14. Tchaikovsky: Piano Trio In A Minor, Op.50 ‘In Memory Of A Great Artist’ (18:08)
The Rembrandt Trio
Код:
REM DATE 2019
PERFORMER "Various Artists"
TITLE "The Absolute Sound 2018"
FILE "TAS 2018.flac" WAVE
  TRACK 01 AUDIO
    TITLE "Enrico Toselli: Serenata"
 PERFORMER "Arve Tellefsen"
    INDEX 01 00:00:00
  TRACK 02 AUDIO
    TITLE "You Brought Me Up"
 PERFORMER "Méav Ní Mhaolchatha"
    INDEX 01 03:44:40
  TRACK 03 AUDIO
    TITLE "God Morgen, Min Kjære"
 PERFORMER "Benny Borg"
    INDEX 01 08:13:07
  TRACK 04 AUDIO
    TITLE "When All Is Said And Done"
 PERFORMER "Inger Marie Gundersen"
    INDEX 01 12:12:17
  TRACK 05 AUDIO
    TITLE "One Last Look"
 PERFORMER "Amber Rubarth"
    INDEX 01 16:00:69
  TRACK 06 AUDIO
    TITLE "The Band Played ‘Sweet Marie’"
 PERFORMER "Reg Meuross"
    INDEX 01 19:34:19
  TRACK 07 AUDIO
    TITLE "Tango Jalousie"
 PERFORMER "Arve Tellefsen"
    INDEX 01 24:22:64
  TRACK 08 AUDIO
    TITLE "Come Tomorrow"
 PERFORMER "Paal Flaata & Maia Flaata"
    INDEX 01 28:58:19
  TRACK 09 AUDIO
    TITLE "Englishman In New York"
 PERFORMER "Barb Jungr & John McDaniel"
    INDEX 01 32:05:30
  TRACK 10 AUDIO
    TITLE "Changes"
 PERFORMER "Niclas Lundin & Kristin Amparo"
    INDEX 01 35:50:22
  TRACK 11 AUDIO
    TITLE "The Miller Boy's Walking Tune"
 PERFORMER "Sigmund Groven"
    INDEX 01 39:41:33
  TRACK 12 AUDIO
    TITLE "Sea Of Glass"
 PERFORMER "Saby O’"
    INDEX 01 44:03:46
  TRACK 13 AUDIO
    TITLE "If Only"
 PERFORMER "Ketil Bjørnstad"
    INDEX 01 49:14:53
  TRACK 14 AUDIO
    TITLE "Tchaikovsky: Piano Trio In A Minor, Op.50 ‘In Memory Of A Great Artist’"
 PERFORMER "The Rembrandt Trio"
    INDEX 01 52:21:06
Код:
-----------------------
DON'T MODIFY THIS FILE
-----------------------
PERFORMER: auCDtect Task Manager, ver. 1.6.0 RC1 build 1.6.0.1
Copyright (c) 2008-2010 y-soft. All rights reserved
[url=http://y-soft.org]http://y-soft.org[/url]
ANALYZER: auCDtect: CD records authenticity detector, version 0.8.2
Copyright (c) 2004 Oleg Berngardt. All rights reserved.
Copyright (c) 2004 Alexander Djourik. All rights reserved.
FILE: TAS 2018.flac
  Size: 385001335 Hash: 031D30C68AE7F8EC35F9EEA8F098A8AC Accuracy: -m0
  Conclusion: CDDA 99%
  Signature: E486C6E5D77C467C732C43AB716764A3C4902DB6
#777
Год издания: 2020
Номер по каталогу: AR0037
Продолжительность: 01:08:38
Трэклист:
01. Hår Eller Håp (03:58)
Ketil Bjørnstad & Eva Bjerga Haugen
02. A Vucchella (05:26)
Håkon Kornstad
03. Perfidia (04:01)
Nicki Parrott
04. Save The Last Dance For Me (05:55)
Allan Taylor
05. Reb Itzik's Nign (06:27)
Stahlhammer Klezmer Classic Trio
06. Grieg: Lyric Pieces Vol.VIII Op.65, No.6 - Wedding Day At Troldhaugen (02:00)
Sigurd Slåttebrekk
07. Lady Overlander (04:26)
Ian Smith
08. Peel Me A Grape (03:38)
Benni Chawes & Malene Mortensen
09. Last First Kiss (04:06)
Inger Marie Gundesn
10. Angel Of The Morning (05:04)
Paal Flaata
11. J.S. Bach: Goldberg Variations BWV988 - Aria (04:30)
Henning Kraggerud & Arctic Philharmonic Chamber Orchestra
12. Kimono (04:23)
Kjetil Saunes & Ketil Bjørnstad
13. Ryuichi Skamoto: Main Title Theme, Rain (I Want A Divorce), Open The Door ~ From Film: "The Last Emperor" (04:15)
Anastasia Chebotareva
14. Mahler: Symphony No.1 - III. Feierlich Und Gemessen, Ohne Zu Schleppen (10:28)
Mariss Jansons & Oslo Philharmonic Orchestra
Код:
REM DATE 2020
PERFORMER "Various"
TITLE "The Absolute Sound 2019"
FILE "TAS 2019.flac" WAVE
  TRACK 01 AUDIO
    TITLE "Hår Eller Håp"
    PERFORMER "Ketil Bjørnstad & Eva Bjerga Haugen"
    INDEX 01 00:00:00
  TRACK 02 AUDIO
    TITLE "A Vucchella"
    PERFORMER "Håkon Kornstad"
    INDEX 01 03:58:00
  TRACK 03 AUDIO
    TITLE "Perfidia"
    PERFORMER "Nicki Parrott"
    INDEX 01 09:24:34
  TRACK 04 AUDIO
    TITLE "Save The Last Dance For Me"
    PERFORMER "Allan Taylor"
    INDEX 01 13:25:06
  TRACK 05 AUDIO
    TITLE "Reb Itzik's Nign"
    PERFORMER "Stahlhammer Klezmer Classic Trio"
    INDEX 01 19:20:17
  TRACK 06 AUDIO
    TITLE "Grieg: Lyric Pieces Vol.VIII Op.65, No.6 - Wedding Day At Troldhaugen"
    PERFORMER "Sigurd Slåttebrekk"
    INDEX 01 25:46:66
  TRACK 07 AUDIO
    TITLE "Lady Overlander"
    PERFORMER "Ian Smith"
    INDEX 01 27:46:49
  TRACK 08 AUDIO
    TITLE "Peel Me A Grape"
    PERFORMER "Benni Chawes & Malene Mortensen"
    INDEX 01 32:12:57
  TRACK 09 AUDIO
    TITLE "Last First Kiss"
    PERFORMER "Inger Marie Gundesn"
    INDEX 01 35:50:27
  TRACK 10 AUDIO
    TITLE "Angel Of The Morning"
    PERFORMER "Paal Flaata"
    INDEX 01 39:56:53
  TRACK 11 AUDIO
    TITLE "J.S. Bach: Goldberg Variations BWV988 - Aria"
    PERFORMER "Henning Kraggerud & Arctic Philharmonic Chamber Orchestra"
    INDEX 01 45:00:39
  TRACK 12 AUDIO
    TITLE "Kimono"
    PERFORMER "Kjetil Saunes & Ketil Bjørnstad"
    INDEX 01 49:30:67
  TRACK 13 AUDIO
    TITLE "Ryuichi Skamoto: Main Title Theme, Rain (I Want A Divorce), Open The Door ~ From Film: ʺThe Last Emperorʺ"
    PERFORMER "Anastasia Chebotareva"
    INDEX 01 53:54:28
  TRACK 14 AUDIO
    TITLE "Mahler: Symphony No.1 - III. Feierlich Und Gemessen, Ohne Zu Schleppen"
    PERFORMER "Mariss Jansons & Oslo Philharmonic Orchestra"
    INDEX 01 58:09:51
Код:
-----------------------
DON'T MODIFY THIS FILE
-----------------------
PERFORMER: auCDtect Task Manager, ver. 1.6.0 RC1 build 1.6.0.1
Copyright (c) 2008-2010 y-soft. All rights reserved
[url=http://y-soft.org]http://y-soft.org[/url]
ANALYZER: auCDtect: CD records authenticity detector, version 0.8.2
Copyright (c) 2004 Oleg Berngardt. All rights reserved.
Copyright (c) 2004 Alexander Djourik. All rights reserved.
FILE: TAS 2019.flac
  Size: 402700603 Hash: A61CAEEA7B2BC7924F58583CFAB9C90E Accuracy: -m0
  Conclusion: CDDA 100%
  Signature: 9D601B04DFCCDDBDAAB07BCEDB081F7F0CE38D1D
#777
Год издания: 2020
Номер по каталогу: AR0038
Продолжительность: 01:07:56
Трэклист:
01. Lilac Sky (4:00)
Saby O'
02. Jeannie With The Light Brown Hair (2:53)
Arve Tellefsen & Kaare Ørnung
03. Looking For The Heart Of Saturday Night (3:49)
Steve Strauss
04. When You Were Young (3:10)
Einar Flaa & Marte Wulff
05. Heartland (3:25)
Snorre Kirk
06. If I Give My Heart To You (3:44)
Nicki Parrott
07. Darin' Cory (3:53)
Chris Jones
08. Yago (5:57)
Tsuyoshi Yamamoto Trio
09. Paint Me A Picture (3:29)
Hanne Boel
10. I Can't Help Falling In Love With You (3:41)
Saby O'
11. Pianology 4 (2:38)
Ketil Bjørnstad
12. Lilac Sky (5:09)
Kira Skov & Bonnie Prince Billy
13. Joaquín Rodrigo: Concierto de Aranjuez - 2 mov. (6:10)
Anastasia Chebotareva & Quartet of The Russian Symphony Orchestra
14. Dvořák: Concerto For Cello And Orchestra In B Minor, Op. 104 B. 191 - 1. Allegro (15:58)
Sandra Lied Haga, State Academic Symphony Orchestra ‘Evgeny Svetlanov’ & Terje Mikkelsen
Код:
EAC 抓取日志文件从29. 十月 2020, 17:51 用于 CD
Various / TAS 2020
使用驱动器  :TEAC    CD-W540E   Adapter: 3  ID: 0
读取模式    :不使用 C2, 使用精确流,禁用缓存的安全模式
读取偏移校正:0
读取 Lead-In 和 Lead-Out : 否
所用输出模式:内部 WAV 函数
                     44.100 Hz;16 Bit;立体声
其他选项    :
    用静音填充抓取中丢失偏移的采样 : 是
    去除首尾静音块 : 否
    Win NT 及 2000 本地 Win32 接口
范围状态及错误
已选择范围
     文件名 G:\[上传]\TAS.2020\CDImage.wav
     峰值电平 94.2 %
     范围质量 99.9 %
     CRC D6CE5395
     复制成功
没有错误发生
状态报告结尾
Код:
REM DATE 2020
TITLE "The Absolute Sound 2020"
FILE "TAS 2020.FLAC" WAVE
  TRACK 01 AUDIO
    TITLE "Lilac Sky"
    PERFORMER "Saby O'"
    INDEX 01 00:00:00
  TRACK 02 AUDIO
    TITLE "Jeannie With The Light Brown Hair"
    PERFORMER "Arve Tellefsen & Kaare Ørnung"
    INDEX 01 04:00:34
  TRACK 03 AUDIO
    TITLE "Looking For The Heart Of Saturday Night"
    PERFORMER "Steve Strauss"
    INDEX 00 06:51:11
    INDEX 01 06:53:06
  TRACK 04 AUDIO
    TITLE "When You Were Young"
    PERFORMER "Einar Flaa & Marte Wulff"
    INDEX 00 10:39:71
    INDEX 01 10:41:65
  TRACK 05 AUDIO
    TITLE "Heartland"
    PERFORMER "Snorre Kirk"
    INDEX 00 13:50:13
    INDEX 01 13:52:25
  TRACK 06 AUDIO
    TITLE "If I Give My Heart To You"
    PERFORMER "Nicki Parrott"
    INDEX 00 17:15:24
    INDEX 01 17:17:38
  TRACK 07 AUDIO
    TITLE "Darin' Cory"
    PERFORMER "Chris Jones"
    INDEX 00 20:58:49
    INDEX 01 21:01:14
  TRACK 08 AUDIO
    TITLE "Yago"
    PERFORMER "Tsuyoshi Yamamoto Trio"
    INDEX 00 24:52:20
    INDEX 01 24:54:24
  TRACK 09 AUDIO
    TITLE "Paint Me A Picture"
    PERFORMER "Hanne Boel"
    INDEX 00 30:50:18
    INDEX 01 30:51:56
  TRACK 10 AUDIO
    TITLE "I Can't Help Falling In Love With You"
    PERFORMER "Saby O'"
    INDEX 01 34:20:29
  TRACK 11 AUDIO
    TITLE "Pianology 4"
    PERFORMER "Ketil Bjørnstad"
    INDEX 00 37:59:09
    INDEX 01 38:01:02
  TRACK 12 AUDIO
    TITLE "Lilac Sky"
    PERFORMER "Kira Skov & Bonnie Prince Billy"
    INDEX 00 40:36:65
    INDEX 01 40:39:32
  TRACK 13 AUDIO
    TITLE "Joaquín Rodrigo: Concierto de Aranjuez - 2 mov."
    PERFORMER "Anastasia Chebotareva & Quartet of The Russian Symphony Orchestra"
    INDEX 00 45:45:21
    INDEX 01 45:48:02
  TRACK 14 AUDIO
    TITLE "Dvořák: Concerto For Cello And Orchestra In B Minor, Op. 104 B. 191 - 1. Allegro"
    PERFORMER "Sandra Lied Haga, State Academic Symphony Orchestra ‘Evgeny Svetlanov’ & Terje Mikkelsen"
    INDEX 00 51:54:62
    INDEX 01 51:57:41
Код:
-----------------------
DON'T MODIFY THIS FILE
-----------------------
PERFORMER: auCDtect Task Manager, ver. 1.6.0 RC1 build 1.6.0.1
Copyright (c) 2008-2010 y-soft. All rights reserved
[url=http://y-soft.org]http://y-soft.org[/url]
ANALYZER: auCDtect: CD records authenticity detector, version 0.8.2
Copyright (c) 2004 Oleg Berngardt. All rights reserved.
Copyright (c) 2004 Alexander Djourik. All rights reserved.
FILE: TAS 2020.flac
  Size: 362895141 Hash: A6CEA466F69FCF6BAE438903EEC0E91F Accuracy: -m0
  Conclusion: CDDA 100%
  Signature: 52C1BA8BD43525C4EC0373B83B7CD91734562505

Сборники серии The Absolute Sound содержат треки различных жанров и исполнителей, обладающие кристально чистым и мелодичным звучанием, которое по достоинству оценят аудиофилы, наиболее требовательные к звуку люди, ищущие исключительно мелодичную и ласкающую слух музыку. Именно так позиционирует эти сборники издатель.
Правила, инструкции, FAQ!!!
Торрент  Добавлен [16 янв 2021, 06:35] Скачать торрент Магнет ссылка
Скачать торрент
[ Размер 28.87 КБ / Просмотров 17 ]

Статус
Проверен 
 
Размер  4.1 ГБ
Приватный: Нет (DHT включён)
.torrent скачан  1
 


     Отправить личное сообщение
   
Страница 1 из 1
Показать сообщения за:  Поле сортировки  
Начать новую тему Ответить на тему


Сейчас этот форум просматривают: нет зарегистрированных пользователей и гости: 0


Вы не можете начинать темы
Вы не можете отвечать на сообщения
Вы не можете редактировать свои сообщения
Вы не можете удалять свои сообщения
Вы не можете добавлять вложения

Перейти:  
cron