Начать новую тему Ответить на тему
Статистика раздачи
Размер: 657.65 МБ | Добавлен: 26 мар 2019, 20:43 | Скачали: 0
Сидеров: 0  [0 байт/сек]    Личеров: 0  [0 байт/сек]
Пред. тема | След. тема 

Автор
Сообщение

СообщениеДобавлено: 26 мар 2019, 20:43 

Ответить с цитатой 

Steve Acho - Solo Acoustic Piano (2CD)
Жанр: Jazz-Pop
Носитель: CD
Страна-производитель диска: Thailand
Год издания: 2013
Издатель (лейбл): Platinum Records
Номер по каталогу: PRS0060
Аудиокодек: FLAC (*.flac)
Тип рипа: image+.cue
Битрейт аудио: lossless
Продолжительность: 53:53 / 58:50
Источник (релизер): Ower Rip
Наличие сканов в содержимом раздачи: да
Код:
[color=#006699][b]01. Home    [0:03:08.02]
02. Bleeding Love    [0:03:16.70]
03. Use Somebody    [0:02:08.45]
04. Apologize    [0:02:58.58]
05. Grenade    [0:03:52.39]
06. We Found Love    [0:03:07.68]
07. What About Now    [0:04:03.24]
08. Whatever It Take    [0:03:08.35]
09. Summer of 69    [0:03:12.26]
10. One    [0:03:39.21]
11. Ever The Same    [0:03:50.59]
12. Breakeven    [0:03:14.63]
13. Mandolin Rain    [0:03:49.64]
14. Irene    [0:03:03.45]
15. Time After Time    [0:03:26.41]
16. Breathe It Out    [0:03:51.22][/color][/b]
Код:
[color=#006699][b]01. Won't Go Home Without You    [0:03:28.02]
02. Faithfully    [0:03:51.62]
03. Heaven    [0:03:22.01]
04. Jumper    [0:02:56.28]
05. Babylon    [0:04:25.18]
06. Here Without You    [0:03:12.25]
07. Viva La Vida    [0:03:23.61]
08. Hey Delilah    [0:04:10.05]
09. Wonderwall    [0:03:15.61]
10. Not Over You    [0:03:43.13]
11. Slide    [0:02:57.27]
12. In My Head    [0:02:46.56]
13. Shadow of The Day    [0:03:19.08]
14. The One    [0:02:53.00]
15. I''ll Be There    [0:03:13.34]
16. Payphone    [0:04:44.00]
17. Lucky    [0:03:07.40][/color][/b]
Код:
Exact Audio Copy V1.0 beta 3 from 29. August 2011
EAC extraction logfile from 10. September 2014, 11:12
Steve Acho / Solo Acoustic Piano
Used drive  : PLEXTOR DVDR   PX-L871A   Adapter: 0  ID: 1
Read mode               : Secure
Utilize accurate stream : Yes
Defeat audio cache      : Yes
Make use of C2 pointers : No
Read offset correction                      : 6
Overread into Lead-In and Lead-Out          : No
Fill up missing offset samples with silence : Yes
Delete leading and trailing silent blocks   : No
Null samples used in CRC calculations       : Yes
Used interface                              : Native Win32 interface for Win NT & 2000
Used output format : Internal WAV Routines
Sample format      : 44.100 Hz; 16 Bit; Stereo
TOC of the extracted CD
     Track |   Start  |  Length  | Start sector | End sector
    ---------------------------------------------------------
        1  |  0:00.00 |  3:08.02 |         0    |    14101
        2  |  3:08.02 |  3:16.70 |     14102    |    28871
        3  |  6:24.72 |  2:08.45 |     28872    |    38516
        4  |  8:33.42 |  2:58.58 |     38517    |    51924
        5  | 11:32.25 |  3:52.39 |     51925    |    69363
        6  | 15:24.64 |  3:07.68 |     69364    |    83456
        7  | 18:32.57 |  4:03.24 |     83457    |   101705
        8  | 22:36.06 |  3:08.35 |    101706    |   115840
        9  | 25:44.41 |  3:12.26 |    115841    |   130266
       10  | 28:56.67 |  3:39.21 |    130267    |   146712
       11  | 32:36.13 |  3:50.59 |    146713    |   164021
       12  | 36:26.72 |  3:14.63 |    164022    |   178634
       13  | 39:41.60 |  3:49.64 |    178635    |   195873
       14  | 43:31.49 |  3:03.45 |    195874    |   209643
       15  | 46:35.19 |  3:26.41 |    209644    |   225134
       16  | 50:01.60 |  3:51.22 |    225135    |   242481
Range status and errors
Selected range
     Filename F:\YES ! We Speak Lossless @ ThailandTorrent\Steve Acho - Solo Acoustic Piano CD1.wav
     Peak level 81.0 %
     Extraction speed 5.7 X
     Range quality 100.0 %
     Test CRC 155C8C8A
     Copy CRC 155C8C8A
     Copy OK
No errors occurred
AccurateRip summary
Track  1  not present in database
Track  2  not present in database
Track  3  not present in database
Track  4  not present in database
Track  5  not present in database
Track  6  not present in database
Track  7  not present in database
Track  8  not present in database
Track  9  not present in database
Track 10  not present in database
Track 11  not present in database
Track 12  not present in database
Track 13  not present in database
Track 14  not present in database
Track 15  not present in database
Track 16  not present in database
None of the tracks are present in the AccurateRip database
End of status report
==== Log checksum 125B9F293AB66BC292023C169E34E621D80F174D0EE0C5E0CC99F6C7E6800E00 ====
Код:
Exact Audio Copy V1.0 beta 3 from 29. August 2011
EAC extraction logfile from 10. September 2014, 11:43
Steve Acho / Solo Acoustic Piano
Used drive  : PLEXTOR DVDR   PX-L871A   Adapter: 0  ID: 1
Read mode               : Secure
Utilize accurate stream : Yes
Defeat audio cache      : Yes
Make use of C2 pointers : No
Read offset correction                      : 6
Overread into Lead-In and Lead-Out          : No
Fill up missing offset samples with silence : Yes
Delete leading and trailing silent blocks   : No
Null samples used in CRC calculations       : Yes
Used interface                              : Native Win32 interface for Win NT & 2000
Used output format : Internal WAV Routines
Sample format      : 44.100 Hz; 16 Bit; Stereo
TOC of the extracted CD
     Track |   Start  |  Length  | Start sector | End sector
    ---------------------------------------------------------
        1  |  0:00.00 |  3:28.02 |         0    |    15601
        2  |  3:28.02 |  3:51.62 |     15602    |    32988
        3  |  7:19.64 |  3:22.01 |     32989    |    48139
        4  | 10:41.65 |  2:56.28 |     48140    |    61367
        5  | 13:38.18 |  4:25.18 |     61368    |    81260
        6  | 18:03.36 |  3:12.25 |     81261    |    95685
        7  | 21:15.61 |  3:23.61 |     95686    |   110971
        8  | 24:39.47 |  4:10.05 |    110972    |   129726
        9  | 28:49.52 |  3:15.61 |    129727    |   144412
       10  | 32:05.38 |  3:43.13 |    144413    |   161150
       11  | 35:48.51 |  2:57.27 |    161151    |   174452
       12  | 38:46.03 |  2:46.56 |    174453    |   186958
       13  | 41:32.59 |  3:19.08 |    186959    |   201891
       14  | 44:51.67 |  2:53.00 |    201892    |   214866
       15  | 47:44.67 |  3:13.34 |    214867    |   229375
       16  | 50:58.26 |  4:44.00 |    229376    |   250675
       17  | 55:42.26 |  3:07.40 |    250676    |   264740
Range status and errors
Selected range
     Filename F:\YES ! We Speak Lossless @ ThailandTorrent\Steve Acho - Solo Acoustic Piano CD2.wav
     Peak level 81.0 %
     Extraction speed 3.2 X
     Range quality 100.0 %
     Test CRC 2A232318
     Copy CRC 2A232318
     Copy OK
No errors occurred
AccurateRip summary
Track  1  not present in database
Track  2  not present in database
Track  3  not present in database
Track  4  not present in database
Track  5  not present in database
Track  6  not present in database
Track  7  not present in database
Track  8  not present in database
Track  9  not present in database
Track 10  not present in database
Track 11  not present in database
Track 12  not present in database
Track 13  not present in database
Track 14  not present in database
Track 15  not present in database
Track 16  not present in database
Track 17  not present in database
None of the tracks are present in the AccurateRip database
End of status report
==== Log checksum 3609F09A27CFC1120F1B9CF6511FD70DC44DF85DC6F3674BCE8FDE487892F9E4 ====
Код:
REM DATE 2013
REM DISCID EC0CA110
REM COMMENT "ExactAudioCopy v1.0b3"
PERFORMER "Steve Acho"
TITLE "Solo Acoustic Piano"
FILE "Steve Acho - Solo Acoustic Piano CD1.flac" WAVE
  TRACK 01 AUDIO
    TITLE "Home"
    PERFORMER "Steve Acho"
    INDEX 01 00:00:00
  TRACK 02 AUDIO
    TITLE "Bleeding Love"
    PERFORMER "Steve Acho"
    INDEX 01 03:08:02
  TRACK 03 AUDIO
    TITLE "Use Somebody"
    PERFORMER "Steve Acho"
    INDEX 01 06:24:72
  TRACK 04 AUDIO
    TITLE "Apologize"
    PERFORMER "Steve Acho"
    INDEX 01 08:33:42
  TRACK 05 AUDIO
    TITLE "Grenade"
    PERFORMER "Steve Acho"
    INDEX 01 11:32:25
  TRACK 06 AUDIO
    TITLE "We Found Love"
    PERFORMER "Steve Acho"
    INDEX 01 15:24:64
  TRACK 07 AUDIO
    TITLE "What About Now"
    PERFORMER "Steve Acho"
    INDEX 01 18:32:57
  TRACK 08 AUDIO
    TITLE "Whatever It Take"
    PERFORMER "Steve Acho"
    INDEX 01 22:36:06
  TRACK 09 AUDIO
    TITLE "Summer of 69"
    PERFORMER "Steve Acho"
    INDEX 01 25:44:41
  TRACK 10 AUDIO
    TITLE "One"
    PERFORMER "Steve Acho"
    INDEX 01 28:56:67
  TRACK 11 AUDIO
    TITLE "Ever The Same"
    PERFORMER "Steve Acho"
    INDEX 01 32:36:13
  TRACK 12 AUDIO
    TITLE "Breakeven"
    PERFORMER "Steve Acho"
    INDEX 01 36:26:72
  TRACK 13 AUDIO
    TITLE "Mandolin Rain"
    PERFORMER "Steve Acho"
    INDEX 01 39:41:60
  TRACK 14 AUDIO
    TITLE "Irene"
    PERFORMER "Steve Acho"
    INDEX 01 43:31:49
  TRACK 15 AUDIO
    TITLE "Time After Time"
    PERFORMER "Steve Acho"
    INDEX 01 46:35:19
  TRACK 16 AUDIO
    TITLE "Breathe It Out"
    PERFORMER "Steve Acho"
    INDEX 01 50:01:60
Код:
REM DATE 2013
REM DISCID DC0DC911
REM COMMENT "ExactAudioCopy v1.0b3"
PERFORMER "Steve Acho"
TITLE "Solo Acoustic Piano"
FILE "Steve Acho - Solo Acoustic Piano CD2.flac" WAVE
  TRACK 01 AUDIO
    TITLE "Won't Go Home Without You"
    PERFORMER "Steve Acho"
    INDEX 01 00:00:00
  TRACK 02 AUDIO
    TITLE "Faithfully"
    PERFORMER "Steve Acho"
    INDEX 01 03:28:02
  TRACK 03 AUDIO
    TITLE "Heaven"
    PERFORMER "Steve Acho"
    INDEX 01 07:19:64
  TRACK 04 AUDIO
    TITLE "Jumper"
    PERFORMER "Steve Acho"
    INDEX 01 10:41:65
  TRACK 05 AUDIO
    TITLE "Babylon"
    PERFORMER "Steve Acho"
    INDEX 01 13:38:18
  TRACK 06 AUDIO
    TITLE "Here Without You"
    PERFORMER "Steve Acho"
    INDEX 01 18:03:36
  TRACK 07 AUDIO
    TITLE "Viva La Vida"
    PERFORMER "Steve Acho"
    INDEX 01 21:15:61
  TRACK 08 AUDIO
    TITLE "Hey Delilah"
    PERFORMER "Steve Acho"
    INDEX 01 24:39:47
  TRACK 09 AUDIO
    TITLE "Wonderwall"
    PERFORMER "Steve Acho"
    INDEX 01 28:49:52
  TRACK 10 AUDIO
    TITLE "Not Over You"
    PERFORMER "Steve Acho"
    INDEX 01 32:05:38
  TRACK 11 AUDIO
    TITLE "Slide"
    PERFORMER "Steve Acho"
    INDEX 01 35:48:51
  TRACK 12 AUDIO
    TITLE "In My Head"
    PERFORMER "Steve Acho"
    INDEX 01 38:46:03
  TRACK 13 AUDIO
    TITLE "Shadow of The Day"
    PERFORMER "Steve Acho"
    INDEX 01 41:32:59
  TRACK 14 AUDIO
    TITLE "The One"
    PERFORMER "Steve Acho"
    INDEX 01 44:51:67
  TRACK 15 AUDIO
    TITLE "I''ll Be There"
    PERFORMER "Steve Acho"
    INDEX 01 47:44:67
  TRACK 16 AUDIO
    TITLE "Payphone"
    PERFORMER "Steve Acho"
    INDEX 01 50:58:26
  TRACK 17 AUDIO
    TITLE "Lucky"
    PERFORMER "Steve Acho"
    INDEX 01 55:42:26
Правила, инструкции, FAQ!!!
Торрент  Добавлен [26 мар 2019, 20:43] Скачать торрент Магнет ссылка
Скачать торрент
[ Размер 14.56 КБ / Просмотров 1 ]

Статус
Проверен 
 
Размер  657.65 МБ
Приватный: Нет (DHT включён)
.torrent скачан  0
 


     Отправить личное сообщение
   
Страница 1 из 1
Показать сообщения за:  Поле сортировки  
Начать новую тему Ответить на тему


Сейчас этот форум просматривают: нет зарегистрированных пользователей и гости: 0


Вы не можете начинать темы
Вы не можете отвечать на сообщения
Вы не можете редактировать свои сообщения
Вы не можете удалять свои сообщения
Вы не можете добавлять вложения

Перейти:  
cron