Начать новую тему Ответить на тему
Статистика раздачи
Размер: 235.4 МБ | Добавлен: 22 июл 2020, 16:32 | Скачали: 2
Сидеров: 11  [0 байт/сек]    Личеров: 3  [0 байт/сек]
Пред. тема | След. тема 

Автор
Сообщение

СообщениеДобавлено: 22 июл 2020, 16:32 

Ответить с цитатой 

Mike Dillon / Rosewood
Жанр: Jazz-Funk
Носитель: WEB
Год издания: 2020
Издатель (лейбл): Royal Potato Family
Номер по каталогу: 195081368771
Аудиокодек: FLAC (*.flac)
Тип рипа: tracks
Продолжительность: 00:44:43
Источник: TIDAL
Наличие сканов в содержимом раздачи: только обложка, вшита
Треклист:
(3:51) 01. Tiki Bird Whistle
(2:36) 02. Beignet's Bounce
(3:54) 03. Mulatu Goes to India
(4:19) 04. St. Claude's Drone
(4:46) 05. Vibes at the End of the World
(4:04) 06. Hurt
(2:48) 07. Rhumba for Peregrine
(3:45) 08. Earl's Bolero
(2:57) 09. Bonobo
(3:23) 10. Talking to Mary
(2:57) 11. Sober Mardi Gras
(1:28) 12. Tony Allen at the Music Box
(3:55) 13. Can't Make a Sound
℗ 2020 Royal Potato Family
Код:
-----------------------
DON'T MODIFY THIS FILE
-----------------------
PERFORMER: auCDtect Task Manager, ver. 1.6.0 RC1 build 1.6.0.1
Copyright (c) 2008-2010 y-soft. All rights reserved
[url=http://y-soft.org]http://y-soft.org[/url]
ANALYZER: auCDtect: CD records authenticity detector, version 0.8.2
Copyright (c) 2004 Oleg Berngardt. All rights reserved.
Copyright (c) 2004 Alexander Djourik. All rights reserved.
FILE: 13 Can't Make a Sound.flac
  Size: 18618189 Hash: 3CF3A28D1FA6E75EAD28ABFB3B2BDB88 Accuracy: -m0
  Conclusion: CDDA 100%
  Signature: AC58A5E4124824DA6188EC3725641AAA3A7C8219
FILE: 12 Tony Allen at the Music Box.flac
  Size: 7760699 Hash: 5F9B51F7BCA6A6C5B5443295E5249989 Accuracy: -m0
  Conclusion: CDDA 100%
  Signature: 4F4CF808CC444977460D8756B5A45518F793BF77
FILE: 11 Sober Mardi Gras.flac
  Size: 16079080 Hash: C06D1BF068B281EE6E1B1191B8A129F0 Accuracy: -m0
  Conclusion: CDDA 100%
  Signature: AA2692897187C05414A40AC5C23336BDC1BF774B
FILE: 10 Talking to Mary.flac
  Size: 16763271 Hash: 87B6AB84B90454E512F768E92FE6E509 Accuracy: -m0
  Conclusion: CDDA 100%
  Signature: E08C633336A8D9E6AAB6370EB6F4777A4B94995F
FILE: 09 Bonobo.flac
  Size: 18582369 Hash: 2828190CB6014594BB6B8745E94F181D Accuracy: -m0
  Conclusion: CDDA 99%
  Signature: 2ABEBACE9F959F659ADE0D880D8829E90D7600D3
FILE: 08 Earl's Bolero.flac
  Size: 21662889 Hash: 9E41CD54EC0F675CE80608BBDE1F5958 Accuracy: -m0
  Conclusion: CDDA 99%
  Signature: 1502FBADEBA74B159C1501458162269254217BDB
FILE: 07 Rhumba for Peregrine.flac
  Size: 16276255 Hash: 9E074D2CF34F78A0D75DC921400D6B4C Accuracy: -m0
  Conclusion: CDDA 100%
  Signature: 090CDCD02B7930EEF1AFD2C4A734F73D8A4CDDE5
FILE: 06 Hurt.flac
  Size: 19811657 Hash: F685E02197DCE219DFB07C55030EAB9B Accuracy: -m0
  Conclusion: CDDA 100%
  Signature: A3FB17F1B39FD23FE687E030ABA2F6017256AE96
FILE: 05 Vibes at the End of the World.flac
  Size: 21979119 Hash: 65442B8459B92AEE7EBDDE6457D5F175 Accuracy: -m0
  Conclusion: CDDA 99%
  Signature: 29BDA8029CDA8065BBC1576B3F9027EEBF80AE8C
FILE: 04 St. Claude's Drone.flac
  Size: 27168129 Hash: 15B4FADC6C068197E5231A786889EED3 Accuracy: -m0
  Conclusion: CDDA 100%
  Signature: 0B42B849AA70B420D0DA61C1D0186814C39BA311
FILE: 03 Mulatu Goes to India.flac
  Size: 22035901 Hash: 74164140E98DE938C566D22EC76A52EA Accuracy: -m0
  Conclusion: CDDA 100%
  Signature: 816F8E877E696B494BE87D5A9317ED3A8E66E34E
FILE: 02 Beignet's Bounce.flac
  Size: 14287834 Hash: 6E506C3390EA30629963B25375D45DAC Accuracy: -m0
  Conclusion: CDDA 100%
  Signature: F1116F63521BC5FBE54044915DACCFE04618835C
FILE: 01 Tiki Bird Whistle.flac
  Size: 25735556 Hash: 49E1030187B6225AEEB2F1BAE29B2519 Accuracy: -m0
  Conclusion: CDDA 100%
  Signature: 5060421839D9F0A78245EB583B1EE307EAE30F68
Код:
foobar2000 1.4.6 / Dynamic Range Meter 1.1.1
--------------------------------------------------------------------------------
Analyzed: Mike Dillon / Rosewood
--------------------------------------------------------------------------------
DR         Peak         RMS     Duration Track
--------------------------------------------------------------------------------
DR7       -0.31 dB    -9.38 dB      3:51 01-Tiki Bird Whistle
DR9       -0.32 dB   -11.05 dB      2:36 02-Beignet's Bounce
DR9       -0.32 dB   -10.41 dB      3:54 03-Mulatu Goes to India
DR7       -0.31 dB    -8.41 dB      4:19 04-St. Claude's Drone
DR9       -0.32 dB   -12.25 dB      4:46 05-Vibes at the End of the World
DR10      -0.32 dB   -13.98 dB      4:04 06-Hurt
DR10      -0.32 dB   -11.59 dB      2:48 07-Rhumba for Peregrine
DR10      -0.32 dB   -13.10 dB      3:45 08-Earl's Bolero
DR9       -0.31 dB   -11.61 dB      2:57 09-Bonobo
DR8       -0.32 dB   -11.51 dB      3:23 10-Talking to Mary
DR9       -0.32 dB   -11.70 dB      2:57 11-Sober Mardi Gras
DR9       -0.32 dB   -11.42 dB      1:28 12-Tony Allen at the Music Box
DR8       -0.32 dB   -12.54 dB      3:55 13-Can't Make a Sound
--------------------------------------------------------------------------------
Number of tracks:  13
Official DR value: DR9
Samplerate:        44100 Hz
Channels:          2
Bits per sample:   16
Bitrate:           615 kbps
Codec:             FLAC
================================================================================
Правила, инструкции, FAQ!!!
Торрент  Добавлен [22 июл 2020, 16:32] Скачать торрент Магнет ссылка
Скачать торрент
[ Размер 38.09 КБ / Просмотров 7 ]

Статус
Проверен 
 
Размер  235.4 МБ
Приватный: Нет (DHT включён)
.torrent скачан  2
 


     Отправить личное сообщение
   
Страница 1 из 1
Показать сообщения за:  Поле сортировки  
Начать новую тему Ответить на тему


Сейчас этот форум просматривают: нет зарегистрированных пользователей и гости: 0


Вы не можете начинать темы
Вы не можете отвечать на сообщения
Вы не можете редактировать свои сообщения
Вы не можете удалять свои сообщения
Вы не можете добавлять вложения

Перейти:  
cron