Начать новую тему Ответить на тему
Статистика раздачи
Размер: 408.3 МБ | Добавлен: 18 окт 2020, 09:39 | Скачали: 1
Сидеров: 4  [0 байт/сек]    Личеров: 1  [0 байт/сек]
Пред. тема | След. тема 

Автор
Сообщение

СообщениеДобавлено: 18 окт 2020, 09:39 

Ответить с цитатой 

Jaan Kuman / Jaan Kuman, trumpet
#777Жанр: Jazz, Funk
Носитель: CD
Страна-производитель диска (релиза): Estonia
Год издания: 2011
Издатель (лейбл): No label
Номер по каталогу: -
Страна исполнителя (группы): Estonia
Аудиокодек: FLAC (*.flac)
Тип рипа: tracks+.cue
Продолжительность: 01:07:34
Источник: собственный рип
Наличие сканов в содержимом раздачи: да
Треклист:
1. Pühade Eel (V. Ojakäär) - 2:19
2. Kontrastid (U. Naissoo) - 3:57
3. Kas Lill On Kodumaa... (U. Naissoo) - 3:06
4. Lõpp-peatus (J. Kuman) - 6:24
5. Gloobus (G. Taniel) - 6:11
6. Metsalilled (J. Kuman) - 3:12
7. Muinaslugu Muusikas (R. Valgre) - 4:54
8. Alati Heas Tujus (U. Naissoo) - 4:52
9. Ratastel (R. Tammik) - 4:21
10. Väike Tüdruk (B. Bacharach) - 4:12
11. Rahu (O. Coleman) - 3:02
12. Kui Algas Kevad (J. Kuman) - 2:22
13. Ping-pong (V. Ojakäär) - 3:01
14. Esemed (F. Havlik, J. Kuman) - 3:19
15. Kevadpäev (H. Hindpere) - 2:41
16. Serenaad Trompetile (V. Ojakäär) - 2:30
17. Roosad Pilved (J. Kuman) - 2:46
18. Kirsiõite Tolm (O. Ehala) - 4:12
Код:
Exact Audio Copy V1.5 from 20. February 2020
Отчёт EAC об извлечении, выполненном 7. октября 2020, 20:51
Jaan Kuman / Trompet kuldsetest seitsmekümnendatest
Дисковод: ASUS    DRW-24D5MT   Adapter: 1  ID: 0
Режим чтения                 : Достоверность
Использование точного потока : Да
Отключение кэша аудио        : Да
Использование указателей C2  : Нет
Коррекция смещения при чтении                     : 6
Способность читать области Lead-in и Lead-out     : Нет
Заполнение пропущенных сэмплов тишиной            : Да
Удаление блоков с тишиной в начале и конце        : Нет
При вычислениях CRC использовались нулевые сэмплы : Да
Интерфейс                                         : Встроенный Win32-интерфейс для Win NT/2000
Обработка зазоров                                 : Добавлено к предыдущему треку
Выходной формат          : Пользовательский кодировщик
Выбранный битрейт        : 128 kBit/s
Качество                 : Высокий
Добавление ID3-тега      : Нет
Утилита сжатия           : C:\Program Files (x86)\Exact Audio Copy\Flac\flac.exe
Дополнительные параметры : -V -8 -T "Genre=%genre%" -T "Artist=%artist%" -T "Title=%title%" -T "Album=%albumtitle%" -T "Date=%year%" -T "Tracknumber=%tracknr%" -T "Comment=%comment%" %source%
TOC извлечённого CD
     Трек |   Старт  | Длительность | Начальный сектор | Конечный сектор
    ---------------------------------------------------------------------
       1  |  0:00.00 |    2:19.49   |           0      |      10473
       2  |  2:19.49 |    3:58.11   |       10474      |      28334
       3  |  6:17.60 |    3:07.09   |       28335      |      42368
       4  |  9:24.69 |    6:24.55   |       42369      |      71223
       5  | 15:49.49 |    6:12.03   |       71224      |      99126
       6  | 22:01.52 |    3:12.50   |       99127      |     113576
       7  | 25:14.27 |    4:54.58   |      113577      |     135684
       8  | 30:09.10 |    4:52.43   |      135685      |     157627
       9  | 35:01.53 |    4:21.20   |      157628      |     177222
      10  | 39:22.73 |    4:13.13   |      177223      |     196210
      11  | 43:36.11 |    3:02.57   |      196211      |     209917
      12  | 46:38.68 |    2:22.10   |      209918      |     220577
      13  | 49:01.03 |    3:01.62   |      220578      |     234214
      14  | 52:02.65 |    3:19.65   |      234215      |     249204
      15  | 55:22.55 |    2:41.64   |      249205      |     261343
      16  | 58:04.44 |    2:30.51   |      261344      |     272644
      17  | 60:35.20 |    2:46.26   |      272645      |     285120
      18  | 63:21.46 |    4:12.36   |      285121      |     304056
Трек  1
     Имя файла G:\Audio\Work\Prokofiev\Jaan Kuman\01. Pühade eel.wav
     Длина предзазора  0:00:02.00
     Пиковый уровень 100.0 %
     Скорость извлечения 4.3 X
     Качество трека 100.0 %
     CRC теста D1BD3CBB
     CRC копии D1BD3CBB
     Копирование... OK
Трек  2
     Имя файла G:\Audio\Work\Prokofiev\Jaan Kuman\02. Kontrastid.wav
     Подозрительная позиция 0:01:34
     Пиковый уровень 100.0 %
     Скорость извлечения 3.3 X
     Качество трека 99.7 %
     CRC теста B40FCD78
     CRC копии 87C77084
     Копирование завершено
Трек  3
     Имя файла G:\Audio\Work\Prokofiev\Jaan Kuman\03. Kas lill on kodumaa....wav
     Пиковый уровень 100.0 %
     Скорость извлечения 5.2 X
     Качество трека 100.0 %
     CRC теста 47FE209D
     CRC копии 47FE209D
     Копирование... OK
Трек  4
     Имя файла G:\Audio\Work\Prokofiev\Jaan Kuman\04. Lõpp-peatus.wav
     Пиковый уровень 100.0 %
     Скорость извлечения 6.2 X
     Качество трека 100.0 %
     CRC теста DE4B954B
     CRC копии DE4B954B
     Копирование... OK
Трек  5
     Имя файла G:\Audio\Work\Prokofiev\Jaan Kuman\05. Gloobus.wav
     Пиковый уровень 100.0 %
     Скорость извлечения 6.8 X
     Качество трека 100.0 %
     CRC теста B9E2587E
     CRC копии B9E2587E
     Копирование... OK
Трек  6
     Имя файла G:\Audio\Work\Prokofiev\Jaan Kuman\06. Metsalilled.wav
     Пиковый уровень 100.0 %
     Скорость извлечения 6.6 X
     Качество трека 100.0 %
     CRC теста 0F1AFD15
     CRC копии 0F1AFD15
     Копирование... OK
Трек  7
     Имя файла G:\Audio\Work\Prokofiev\Jaan Kuman\07. Muinaslugu muusikas.wav
     Пиковый уровень 100.0 %
     Скорость извлечения 6.6 X
     Качество трека 99.9 %
     CRC теста 04357AA7
     CRC копии 04357AA7
     Копирование... OK
Трек  8
     Имя файла G:\Audio\Work\Prokofiev\Jaan Kuman\08. Alati heas tujus.wav
     Пиковый уровень 100.0 %
     Скорость извлечения 7.6 X
     Качество трека 100.0 %
     CRC теста C8923829
     CRC копии C8923829
     Копирование... OK
Трек  9
     Имя файла G:\Audio\Work\Prokofiev\Jaan Kuman\09. Ratastel.wav
     Пиковый уровень 100.0 %
     Скорость извлечения 7.0 X
     Качество трека 99.9 %
     CRC теста 98F79311
     CRC копии 98F79311
     Копирование... OK
Трек 10
     Имя файла G:\Audio\Work\Prokofiev\Jaan Kuman\10. Väike tüdruk.wav
     Пиковый уровень 100.0 %
     Скорость извлечения 8.0 X
     Качество трека 100.0 %
     CRC теста D3F3C4B5
     CRC копии D3F3C4B5
     Копирование... OK
Трек 11
     Имя файла G:\Audio\Work\Prokofiev\Jaan Kuman\11. Rahu.wav
     Пиковый уровень 100.0 %
     Скорость извлечения 7.9 X
     Качество трека 100.0 %
     CRC теста C5957495
     CRC копии C5957495
     Копирование... OK
Трек 12
     Имя файла G:\Audio\Work\Prokofiev\Jaan Kuman\12. Kui algas kevad.wav
     Пиковый уровень 100.0 %
     Скорость извлечения 7.7 X
     Качество трека 100.0 %
     CRC теста 66B78235
     CRC копии 66B78235
     Копирование... OK
Трек 13
     Имя файла G:\Audio\Work\Prokofiev\Jaan Kuman\13. Ping-pong.wav
     Пиковый уровень 100.0 %
     Скорость извлечения 8.2 X
     Качество трека 100.0 %
     CRC теста D7CB9EBB
     CRC копии D7CB9EBB
     Копирование... OK
Трек 14
     Имя файла G:\Audio\Work\Prokofiev\Jaan Kuman\14. Esemed.wav
     Пиковый уровень 100.0 %
     Скорость извлечения 7.4 X
     Качество трека 99.9 %
     CRC теста F98CF46E
     CRC копии F98CF46E
     Копирование... OK
Трек 15
     Имя файла G:\Audio\Work\Prokofiev\Jaan Kuman\15. Kevadpäev.wav
     Пиковый уровень 100.0 %
     Скорость извлечения 8.3 X
     Качество трека 100.0 %
     CRC теста FD6DB61E
     CRC копии FD6DB61E
     Копирование... OK
Трек 16
     Имя файла G:\Audio\Work\Prokofiev\Jaan Kuman\16. Serenaad trompetile.wav
     Пиковый уровень 100.0 %
     Скорость извлечения 8.5 X
     Качество трека 100.0 %
     CRC теста CF5CAEDA
     CRC копии CF5CAEDA
     Копирование... OK
Трек 17
     Имя файла G:\Audio\Work\Prokofiev\Jaan Kuman\17. Roosad pilved.wav
     Пиковый уровень 100.0 %
     Скорость извлечения 7.4 X
     Качество трека 99.9 %
     CRC теста 7F903E4A
     CRC копии 7F903E4A
     Копирование... OK
Трек 18
     Имя файла G:\Audio\Work\Prokofiev\Jaan Kuman\18. Kirsiõite tolm.wav
     Пиковый уровень 99.0 %
     Скорость извлечения 9.5 X
     Качество трека 100.0 %
     CRC теста 8E596961
     CRC копии 8E596961
     Копирование... OK
Были ошибки
Конец отчёта
==== Контрольная сумма отчёта FC5422092FA5434A47D2410E245FFCE1259F665E54A4E982D11D1424D2B4B488 ====
Код:
REM GENRE Jazz+Funk
REM DATE 2011
REM DISCID EA0FD612
REM COMMENT "ExactAudioCopy v1.5"
PERFORMER "Jaan Kuman"
TITLE "Trompet kuldsetest seitsmekumnendatest"
REM COMPOSER ""
FILE "01. Puhade eel.wav" WAVE
  TRACK 01 AUDIO
    TITLE "Puhade eel"
    PERFORMER "Jaan Kuman"
    REM COMPOSER ""
    INDEX 01 00:00:00
FILE "02. Kontrastid.wav" WAVE
  TRACK 02 AUDIO
    TITLE "Kontrastid"
    PERFORMER "Jaan Kuman"
    REM COMPOSER ""
    INDEX 01 00:00:00
FILE "03. Kas lill on kodumaa....wav" WAVE
  TRACK 03 AUDIO
    TITLE "Kas lill on kodumaa..."
    PERFORMER "Jaan Kuman"
    REM COMPOSER ""
    INDEX 01 00:00:00
FILE "04. Lopp-peatus.wav" WAVE
  TRACK 04 AUDIO
    TITLE "Lopp-peatus"
    PERFORMER "Jaan Kuman"
    REM COMPOSER ""
    INDEX 01 00:00:00
FILE "05. Gloobus.wav" WAVE
  TRACK 05 AUDIO
    TITLE "Gloobus"
    PERFORMER "Jaan Kuman"
    REM COMPOSER ""
    INDEX 01 00:00:00
FILE "06. Metsalilled.wav" WAVE
  TRACK 06 AUDIO
    TITLE "Metsalilled"
    PERFORMER "Jaan Kuman"
    REM COMPOSER ""
    INDEX 01 00:00:00
FILE "07. Muinaslugu muusikas.wav" WAVE
  TRACK 07 AUDIO
    TITLE "Muinaslugu muusikas"
    PERFORMER "Jaan Kuman"
    REM COMPOSER ""
    INDEX 01 00:00:00
FILE "08. Alati heas tujus.wav" WAVE
  TRACK 08 AUDIO
    TITLE "Alati heas tujus"
    PERFORMER "Jaan Kuman"
    REM COMPOSER ""
    INDEX 01 00:00:00
FILE "09. Ratastel.wav" WAVE
  TRACK 09 AUDIO
    TITLE "Ratastel"
    PERFORMER "Jaan Kuman"
    REM COMPOSER ""
    INDEX 01 00:00:00
FILE "10. Vaike tudruk.wav" WAVE
  TRACK 10 AUDIO
    TITLE "Vaike tudruk"
    PERFORMER "Jaan Kuman"
    REM COMPOSER ""
    INDEX 01 00:00:00
FILE "11. Rahu.wav" WAVE
  TRACK 11 AUDIO
    TITLE "Rahu"
    PERFORMER "Jaan Kuman"
    REM COMPOSER ""
    INDEX 01 00:00:00
FILE "12. Kui algas kevad.wav" WAVE
  TRACK 12 AUDIO
    TITLE "Kui algas kevad"
    PERFORMER "Jaan Kuman"
    REM COMPOSER ""
    INDEX 01 00:00:00
FILE "13. Ping-pong.wav" WAVE
  TRACK 13 AUDIO
    TITLE "Ping-pong"
    PERFORMER "Jaan Kuman"
    REM COMPOSER ""
    INDEX 01 00:00:00
FILE "14. Esemed.wav" WAVE
  TRACK 14 AUDIO
    TITLE "Esemed"
    PERFORMER "Jaan Kuman"
    REM COMPOSER ""
    INDEX 01 00:00:00
FILE "15. Kevadpaev.wav" WAVE
  TRACK 15 AUDIO
    TITLE "Kevadpaev"
    PERFORMER "Jaan Kuman"
    REM COMPOSER ""
    INDEX 01 00:00:00
FILE "16. Serenaad trompetile.wav" WAVE
  TRACK 16 AUDIO
    TITLE "Serenaad trompetile"
    PERFORMER "Jaan Kuman"
    REM COMPOSER ""
    INDEX 01 00:00:00
FILE "17. Roosad pilved.wav" WAVE
  TRACK 17 AUDIO
    TITLE "Roosad pilved"
    PERFORMER "Jaan Kuman"
    REM COMPOSER ""
    INDEX 01 00:00:00
FILE "18. Kirsioite tolm.wav" WAVE
  TRACK 18 AUDIO
    TITLE "Kirsioite tolm"
    PERFORMER "Jaan Kuman"
    REM COMPOSER ""
    INDEX 01 00:00:00
Код:
[url=https://fastpic.ru/view/114/2020/1007/cafbc958af5a89b0e919f238e340d7b7.jpg.html][img]https://i114.fastpic.ru/thumb/2020/1007/b7/cafbc958af5a89b0e919f238e340d7b7.jpeg[/img][/url]
Доп. информация: Великолепный эстонский трубач, слушал его в 70-е годы
Правила, инструкции, FAQ!!!
Торрент  Добавлен [18 окт 2020, 09:39] Скачать торрент Магнет ссылка
Скачать торрент
[ Размер 17.59 КБ / Просмотров 6 ]

Статус
Проверен 
 
Размер  408.3 МБ
Приватный: Нет (DHT включён)
.torrent скачан  1
 


     Отправить личное сообщение
   
Страница 1 из 1
Показать сообщения за:  Поле сортировки  
Начать новую тему Ответить на тему


Сейчас этот форум просматривают: нет зарегистрированных пользователей и гости: 0


Вы не можете начинать темы
Вы не можете отвечать на сообщения
Вы не можете редактировать свои сообщения
Вы не можете удалять свои сообщения
Вы не можете добавлять вложения

Перейти:  
cron