Начать новую тему Ответить на тему
Статистика раздачи
Размер: 530.47 МБ | Добавлен: 26 мар 2019, 20:14 | Скачали: 0
Сидеров: 13  [0 байт/сек]    Личеров: 4  [0 байт/сек]
Пред. тема | След. тема 

Автор
Сообщение

СообщениеДобавлено: 26 мар 2019, 20:14 

Ответить с цитатой 

Fabrizio De André - In Concerto Arrangiamenti PFM

Жанр: Italian
Страна исполнителя: Italy
Дата записи: 1979
Дата выпуска: 2002
Производитель диска: BMG Ricordi S.p.A. 74321 974172
Аудио кодек: FLAC
Тип рипа: tracks+.cue
Битрейт: lossless
Обложки: jpg (300 dpi)
Продолжительность: 00:46:10 & 00:38:22
Источник: Sarchiapone
Треклист:
CD 1:
01. Bocca Di Rosa (4:40)
02. Andrea (5:30)
03. Giugno '73 (4:32)
04. Un Giudice (3:37)
05. La Guerra Di Piero (3:26)
06. Il Pescatore (4:16)
07. Zirichiltaggia (2:36)
08. La Canzone Di Marinella (4:04)
09. Volta La Carta (4:03)
10. Amico Fragile (9:26)
CD 2:
01. Avventura A Durango (5:32)
02. Presentazione (3:34)
03. Sally (5:07)
04. Verranno A Chiederti Del Nostro Amore (5:09)
05. Rimini (5:07)
06. Via Del Campo (2:46)
07. Maria Nella Bottega Del Falegname (4:08)
08. Il Testamento Di Tito (7:00)
Состав:
Fabrizio De André - voce, chitarra acustica
Franz Di Cioccio - batteria, percussioni, marimba, crotali
Patrick Djivas - basso
Franco Mussida - chitarra elettrica, chitarra classica, chitarre acustiche 6 & 12 corde, voce
Flavio Premoli - tastiere, sintetizzatori, chitarra acustica 12 corde, voce, fisarmonica
Lucio "Violino" Fabbri - violino, percussioni
Roberto Colombo - tastiere, sintetizzatori, chitarra acustica, voce, percussioni
Код:
EAC extraction logfile from 30. May 2007, 20:25 for CD
Fabrizio De Andre' / In Concerto Arrangiamenti PFM
Used drive  : PLEXTOR DVDR   PX-716A   Adapter: 1  ID: 0
Read mode   : Secure with NO C2, accurate stream, disable cache
Read offset correction : 30
Overread into Lead-In and Lead-Out : No
Used output format : C:\Programmi\Exact Audio Copy\flac-1.1.2-win\bin\flac.exe   (User Defined Encoder)
                     32 kBit/s
                     Additional command line options : -8 -V -T "artist=%a" -T "title=%t" -T "album=%g" -T "date=%y" -T "tracknumber=%n" -T "genre=%m" -T "comment=Exact Audio Copy 0.95 b3 Secure Mode / FLAC q8 v. 1.1.2" %s
Other options      :
    Fill up missing offset samples with silence : Yes
    Delete leading and trailing silent blocks : No
    Installed external ASPI interface
Track  1
     Filename F:\[MyRip]\01 - Bocca Di Rosa.wav
     Pre-gap length  0:00:02.00
     Peak level 99.8 %
     Track quality 100.0 %
     Test CRC 31F5D179
     Copy CRC 31F5D179
     Copy OK
Track  2
     Filename F:\[MyRip]\02 - Andrea.wav
     Peak level 99.8 %
     Track quality 99.9 %
     Test CRC BAD14C71
     Copy CRC BAD14C71
     Copy OK
Track  3
     Filename F:\[MyRip]\03 - Giugno '73.wav
     Peak level 97.3 %
     Track quality 100.0 %
     Test CRC D01AEA93
     Copy CRC D01AEA93
     Copy OK
Track  4
     Filename F:\[MyRip]\04 - Un Giudice.wav
     Peak level 99.9 %
     Track quality 99.9 %
     Test CRC 45AB5B62
     Copy CRC 45AB5B62
     Copy OK
Track  5
     Filename F:\[MyRip]\05 - La Guerra Di Piero.wav
     Peak level 99.8 %
     Track quality 100.0 %
     Test CRC DF5FA4F8
     Copy CRC DF5FA4F8
     Copy OK
Track  6
     Filename F:\[MyRip]\06 - Il Pescatore.wav
     Peak level 99.8 %
     Track quality 99.9 %
     Test CRC 4DD80DD8
     Copy CRC 4DD80DD8
     Copy OK
Track  7
     Filename F:\[MyRip]\07 - Zirichiltaggia.wav
     Peak level 99.8 %
     Track quality 100.0 %
     Test CRC 68230AD0
     Copy CRC 68230AD0
     Copy OK
Track  8
     Filename F:\[MyRip]\08 - La Canzone Di Marinella.wav
     Peak level 87.0 %
     Track quality 100.0 %
     Test CRC F8527918
     Copy CRC F8527918
     Copy OK
Track  9
     Filename F:\[MyRip]\09 - Volta La Carta.wav
     Peak level 96.8 %
     Track quality 100.0 %
     Test CRC 40A789EC
     Copy CRC 40A789EC
     Copy OK
Track 10
     Filename F:\[MyRip]\10 - Amico Fragile.wav
     Peak level 99.8 %
     Track quality 100.0 %
     Test CRC 9C109D83
     Copy CRC 9C109D83
     Copy OK
No errors occured
End of status report
------------------------------------------------------------
EAC extraction logfile from 30. May 2007, 20:25 for CD
Fabrizio De Andre' / In Concerto Arrangiamenti PFM
Used drive  : PLEXTOR DVDR   PX-716A   Adapter: 1  ID: 0
Read mode   : Secure with NO C2, accurate stream, disable cache
Read offset correction : 30
Overread into Lead-In and Lead-Out : No
Used output format : C:\Programmi\Exact Audio Copy\flac-1.1.2-win\bin\flac.exe   (User Defined Encoder)
                     32 kBit/s
                     Additional command line options : -8 -V -T "artist=%a" -T "title=%t" -T "album=%g" -T "date=%y" -T "tracknumber=%n" -T "genre=%m" -T "comment=Exact Audio Copy 0.95 b3 Secure Mode / FLAC q8 v. 1.1.2" %s
Other options      :
    Fill up missing offset samples with silence : Yes
    Delete leading and trailing silent blocks : No
    Installed external ASPI interface
Track  1
     Filename F:\[MyRip]\01 - Bocca Di Rosa.wav
     Pre-gap length  0:00:02.00
     Peak level 99.8 %
     Track quality 100.0 %
     Test CRC 31F5D179
     Copy CRC 31F5D179
     Copy OK
Track  2
     Filename F:\[MyRip]\02 - Andrea.wav
     Peak level 99.8 %
     Track quality 99.9 %
     Test CRC BAD14C71
     Copy CRC BAD14C71
     Copy OK
Track  3
     Filename F:\[MyRip]\03 - Giugno '73.wav
     Peak level 97.3 %
     Track quality 100.0 %
     Test CRC D01AEA93
     Copy CRC D01AEA93
     Copy OK
Track  4
     Filename F:\[MyRip]\04 - Un Giudice.wav
     Peak level 99.9 %
     Track quality 99.9 %
     Test CRC 45AB5B62
     Copy CRC 45AB5B62
     Copy OK
Track  5
     Filename F:\[MyRip]\05 - La Guerra Di Piero.wav
     Peak level 99.8 %
     Track quality 100.0 %
     Test CRC DF5FA4F8
     Copy CRC DF5FA4F8
     Copy OK
Track  6
     Filename F:\[MyRip]\06 - Il Pescatore.wav
     Peak level 99.8 %
     Track quality 99.9 %
     Test CRC 4DD80DD8
     Copy CRC 4DD80DD8
     Copy OK
Track  7
     Filename F:\[MyRip]\07 - Zirichiltaggia.wav
     Peak level 99.8 %
     Track quality 100.0 %
     Test CRC 68230AD0
     Copy CRC 68230AD0
     Copy OK
Track  8
     Filename F:\[MyRip]\08 - La Canzone Di Marinella.wav
     Peak level 87.0 %
     Track quality 100.0 %
     Test CRC F8527918
     Copy CRC F8527918
     Copy OK
Track  9
     Filename F:\[MyRip]\09 - Volta La Carta.wav
     Peak level 96.8 %
     Track quality 100.0 %
     Test CRC 40A789EC
     Copy CRC 40A789EC
     Copy OK
Track 10
     Filename F:\[MyRip]\10 - Amico Fragile.wav
     Peak level 99.8 %
     Track quality 100.0 %
     Test CRC 9C109D83
     Copy CRC 9C109D83
     Copy OK
No errors occured
End of status report
EAC extraction logfile from 30. May 2007, 20:52 for CD
Fabrizio De Andre' / In Concerto Arrangiamenti PFM Vol 2
Used drive  : PLEXTOR DVDR   PX-716A   Adapter: 1  ID: 0
Read mode   : Secure with NO C2, accurate stream, disable cache
Read offset correction : 30
Overread into Lead-In and Lead-Out : No
Used output format : C:\Programmi\Exact Audio Copy\flac-1.1.2-win\bin\flac.exe   (User Defined Encoder)
                     32 kBit/s
                     Additional command line options : -8 -V -T "artist=%a" -T "title=%t" -T "album=%g" -T "date=%y" -T "tracknumber=%n" -T "genre=%m" -T "comment=Exact Audio Copy 0.95 b3 Secure Mode / FLAC q8 v. 1.1.2" %s
Other options      :
    Fill up missing offset samples with silence : Yes
    Delete leading and trailing silent blocks : No
    Installed external ASPI interface
Track  1
     Filename F:\[MyRip]\01 - Avventura A Durango.wav
     Pre-gap length  0:00:02.00
     Peak level 99.5 %
     Track quality 100.0 %
     Test CRC 8D23C328
     Copy CRC 8D23C328
     Copy OK
Track  2
     Filename F:\[MyRip]\02 - Presentazione.wav
     Peak level 81.1 %
     Track quality 100.0 %
     Test CRC F83D87C0
     Copy CRC F83D87C0
     Copy OK
Track  3
     Filename F:\[MyRip]\03 - Sally.wav
     Peak level 99.5 %
     Track quality 100.0 %
     Test CRC 47EC2919
     Copy CRC 47EC2919
     Copy OK
Track  4
     Filename F:\[MyRip]\04 - Verranno A Chiederti Del Nostro Amore.wav
     Peak level 99.8 %
     Track quality 100.0 %
     Test CRC CCEFDE14
     Copy CRC CCEFDE14
     Copy OK
Track  5
     Filename F:\[MyRip]\05 - Rimini.wav
     Peak level 99.5 %
     Track quality 100.0 %
     Test CRC A9998DC5
     Copy CRC A9998DC5
     Copy OK
Track  6
     Filename F:\[MyRip]\06 - Via Del Campo.wav
     Peak level 96.1 %
     Track quality 100.0 %
     Test CRC 40D8D3E9
     Copy CRC 40D8D3E9
     Copy OK
Track  7
     Filename F:\[MyRip]\07 - Maria Nella Bottega Del Falegname.wav
     Peak level 99.5 %
     Track quality 100.0 %
     Test CRC 5050E260
     Copy CRC 5050E260
     Copy OK
Track  8
     Filename F:\[MyRip]\08 - Il Testamento Di Tito.wav
     Peak level 88.7 %
     Track quality 99.9 %
     Test CRC 4AAEA962
     Copy CRC 4AAEA962
     Copy OK
No errors occured
End of status report
------------------------------------------------------------
EAC extraction logfile from 30. May 2007, 20:52 for CD
Fabrizio De Andre' / In Concerto Arrangiamenti PFM Vol 2
Used drive  : PLEXTOR DVDR   PX-716A   Adapter: 1  ID: 0
Read mode   : Secure with NO C2, accurate stream, disable cache
Read offset correction : 30
Overread into Lead-In and Lead-Out : No
Used output format : C:\Programmi\Exact Audio Copy\flac-1.1.2-win\bin\flac.exe   (User Defined Encoder)
                     32 kBit/s
                     Additional command line options : -8 -V -T "artist=%a" -T "title=%t" -T "album=%g" -T "date=%y" -T "tracknumber=%n" -T "genre=%m" -T "comment=Exact Audio Copy 0.95 b3 Secure Mode / FLAC q8 v. 1.1.2" %s
Other options      :
    Fill up missing offset samples with silence : Yes
    Delete leading and trailing silent blocks : No
    Installed external ASPI interface
Track  1
     Filename F:\[MyRip]\01 - Avventura A Durango.wav
     Pre-gap length  0:00:02.00
     Peak level 99.5 %
     Track quality 100.0 %
     Test CRC 8D23C328
     Copy CRC 8D23C328
     Copy OK
Track  2
     Filename F:\[MyRip]\02 - Presentazione.wav
     Peak level 81.1 %
     Track quality 100.0 %
     Test CRC F83D87C0
     Copy CRC F83D87C0
     Copy OK
Track  3
     Filename F:\[MyRip]\03 - Sally.wav
     Peak level 99.5 %
     Track quality 100.0 %
     Test CRC 47EC2919
     Copy CRC 47EC2919
     Copy OK
Track  4
     Filename F:\[MyRip]\04 - Verranno A Chiederti Del Nostro Amore.wav
     Peak level 99.8 %
     Track quality 100.0 %
     Test CRC CCEFDE14
     Copy CRC CCEFDE14
     Copy OK
Track  5
     Filename F:\[MyRip]\05 - Rimini.wav
     Peak level 99.5 %
     Track quality 100.0 %
     Test CRC A9998DC5
     Copy CRC A9998DC5
     Copy OK
Track  6
     Filename F:\[MyRip]\06 - Via Del Campo.wav
     Peak level 96.1 %
     Track quality 100.0 %
     Test CRC 40D8D3E9
     Copy CRC 40D8D3E9
     Copy OK
Track  7
     Filename F:\[MyRip]\07 - Maria Nella Bottega Del Falegname.wav
     Peak level 99.5 %
     Track quality 100.0 %
     Test CRC 5050E260
     Copy CRC 5050E260
     Copy OK
Track  8
     Filename F:\[MyRip]\08 - Il Testamento Di Tito.wav
     Peak level 88.7 %
     Track quality 99.9 %
     Test CRC 4AAEA962
     Copy CRC 4AAEA962
     Copy OK
No errors occured
End of status report
Код:
REM GENRE World
REM DATE 1979
REM DISCID 720AD20A
REM COMMENT "ExactAudioCopy v0.95b3"
PERFORMER "Fabrizio De Andre'"
TITLE "In Concerto Arrangiamenti PFM"
FILE "01 - Bocca Di Rosa.wav" WAVE
  TRACK 01 AUDIO
    TITLE "Bocca Di Rosa"
    PERFORMER "Fabrizio De Andre'"
    INDEX 01 00:00:00
FILE "02 - Andrea.wav" WAVE
  TRACK 02 AUDIO
    TITLE "Andrea"
    PERFORMER "Fabrizio De Andre'"
    INDEX 01 00:00:00
FILE "03 - Giugno '73.wav" WAVE
  TRACK 03 AUDIO
    TITLE "Giugno '73"
    PERFORMER "Fabrizio De Andre'"
    INDEX 01 00:00:00
FILE "04 - Un Giudice.wav" WAVE
  TRACK 04 AUDIO
    TITLE "Un Giudice"
    PERFORMER "Fabrizio De Andre'"
    INDEX 01 00:00:00
FILE "05 - La Guerra Di Piero.wav" WAVE
  TRACK 05 AUDIO
    TITLE "La Guerra Di Piero"
    PERFORMER "Fabrizio De Andre'"
    INDEX 01 00:00:00
FILE "06 - Il Pescatore.wav" WAVE
  TRACK 06 AUDIO
    TITLE "Il Pescatore"
    PERFORMER "Fabrizio De Andre'"
    INDEX 01 00:00:00
FILE "07 - Zirichiltaggia.wav" WAVE
  TRACK 07 AUDIO
    TITLE "Zirichiltaggia"
    PERFORMER "Fabrizio De Andre'"
    INDEX 01 00:00:00
FILE "08 - La Canzone Di Marinella.wav" WAVE
  TRACK 08 AUDIO
    TITLE "La Canzone Di Marinella"
    PERFORMER "Fabrizio De Andre'"
    INDEX 01 00:00:00
FILE "09 - Volta La Carta.wav" WAVE
  TRACK 09 AUDIO
    TITLE "Volta La Carta"
    PERFORMER "Fabrizio De Andre'"
    INDEX 01 00:00:00
FILE "10 - Amico Fragile.wav" WAVE
  TRACK 10 AUDIO
    TITLE "Amico Fragile"
    PERFORMER "Fabrizio De Andre'"
    INDEX 01 00:00:00
REM GENRE World
REM DATE 1979
REM DISCID 6908FE08
REM COMMENT "ExactAudioCopy v0.95b3"
PERFORMER "Fabrizio De Andre'"
TITLE "In Concerto Arrangiamenti PFM Vol 2"
FILE "01 - Avventura A Durango.wav" WAVE
  TRACK 01 AUDIO
    TITLE "Avventura A Durango"
    PERFORMER "Fabrizio De Andre'"
    INDEX 01 00:00:00
FILE "02 - Presentazione.wav" WAVE
  TRACK 02 AUDIO
    TITLE "Presentazione"
    PERFORMER "Fabrizio De Andre'"
    INDEX 01 00:00:00
FILE "03 - Sally.wav" WAVE
  TRACK 03 AUDIO
    TITLE "Sally"
    PERFORMER "Fabrizio De Andre'"
    INDEX 01 00:00:00
FILE "04 - Verranno A Chiederti Del Nostro Amore.wav" WAVE
  TRACK 04 AUDIO
    TITLE "Verranno A Chiederti Del Nostro Amore"
    PERFORMER "Fabrizio De Andre'"
    INDEX 01 00:00:00
FILE "05 - Rimini.wav" WAVE
  TRACK 05 AUDIO
    TITLE "Rimini"
    PERFORMER "Fabrizio De Andre'"
    INDEX 01 00:00:00
FILE "06 - Via Del Campo.wav" WAVE
  TRACK 06 AUDIO
    TITLE "Via Del Campo"
    PERFORMER "Fabrizio De Andre'"
    INDEX 01 00:00:00
FILE "07 - Maria Nella Bottega Del Falegname.wav" WAVE
  TRACK 07 AUDIO
    TITLE "Maria Nella Bottega Del Falegname"
    PERFORMER "Fabrizio De Andre'"
    INDEX 01 00:00:00
FILE "08 - Il Testamento Di Tito.wav" WAVE
  TRACK 08 AUDIO
    TITLE "Il Testamento Di Tito"
    PERFORMER "Fabrizio De Andre'"
    INDEX 01 00:00:00
Код:
[CUETools log; Date: 08.09.2011 21:07:25; Version: 2.1.1]
[CTDB TOCID: k9ePp1exfSw1pIt3QmYBMYrCo6g-] found.
        [ CTDBID ] Status
        [496a744a] (1/1) No match
[AccurateRip ID: 00107a2b-00829d17-720ad20a] found.
Track   [ CRC    ] Status
 01     [df2269b4] (05/17) Accurately ripped
 02     [2ed9d09c] (05/17) Accurately ripped
 03     [ef573fa3] (05/17) Accurately ripped
 04     [f38bcb35] (05/17) Accurately ripped
 05     [97dbf372] (05/17) Accurately ripped
 06     [de6a6cc7] (05/17) Accurately ripped
 07     [813dd7a1] (05/17) Accurately ripped
 08     [6031bacb] (05/17) Accurately ripped
 09     [0d1af617] (05/16) Accurately ripped
 10     [72762d66] (05/16) Accurately ripped
Offsetted by -664:
 01     [028b0325] (04/17) Accurately ripped
 02     [b421cacc] (04/17) Accurately ripped
 03     [b1284918] (04/17) Accurately ripped
 04     [88a9f625] (04/17) Accurately ripped
 05     [dce6f358] (04/17) Accurately ripped
 06     [914c48e1] (04/17) Accurately ripped
 07     [79b0d05c] (04/17) Accurately ripped
 08     [73a1af6e] (04/17) Accurately ripped
 09     [c15f3bcd] (04/16) Accurately ripped
 10     [5ce70724] (03/16) Accurately ripped
Offsetted by 1304:
 01     [c8c2b20d] (05/17) Accurately ripped
 02     [b0caa397] (05/17) Accurately ripped
 03     [52462519] (05/17) Accurately ripped
 04     [c12282c0] (05/17) Accurately ripped
 05     [d1f4282a] (05/17) Accurately ripped
 06     [4cbb8764] (05/17) Accurately ripped
 07     [416dd373] (05/17) Accurately ripped
 08     [8af2c5d3] (05/17) Accurately ripped
 09     [a5f72833] (04/16) Accurately ripped
 10     [9681eda1] (05/16) Accurately ripped
Offsetted by 628:
 01     [5f92cad4] (00/17) No match but offset
 02     [21fcdbe2] (00/17) No match but offset
 03     [75126776] (00/17) No match but offset
 04     [99e5e03e] (00/17) No match but offset
 05     [d937030c] (00/17) No match but offset
 06     [c8454b82] (00/17) No match but offset
 07     [18a79f0a] (00/17) No match but offset
 08     [c1e991b0] (00/17) No match but offset
 09     [c8123af0] (00/16) No match but offset
 10     [1a02e04a] (00/16) No match
Offsetted by 2613:
 01     [c05a6e33] (00/17) No match but offset
 02     [d56b0155] (03/17) Accurately ripped
 03     [357c0dbb] (03/17) Accurately ripped
 04     [1a140236] (03/17) Accurately ripped
 05     [de87f900] (03/17) Accurately ripped
 06     [0a637d63] (03/17) Accurately ripped
 07     [d8af642d] (03/17) Accurately ripped
 08     [eca9db3b] (03/17) Accurately ripped
 09     [4ac9206c] (03/16) Accurately ripped
 10     [402b3a7f] (03/16) Accurately ripped
Track Peak [ CRC32  ] [W/O NULL] [  LOG   ]
 --   99,9 [4BAFF5F6] [ABED569C]
 01   99,8 [31F5D179] [5E5CA8F3]   CRC32
 02   99,8 [BAD14C71] [E1CBA036]   CRC32
 03   97,3 [D01AEA93] [2BD022C7]   CRC32
 04   99,9 [45AB5B62] [796D25E6]   CRC32
 05   99,8 [DF5FA4F8] [6C4E2D71]   CRC32
 06   99,8 [4DD80DD8] [AE86F4AE]   CRC32
 07   99,8 [68230AD0] [7B70CE2C]   CRC32
 08   87,0 [F8527918] [78185FCD]   CRC32
 09   96,8 [40A789EC] [23EEDC63]   CRC32
 10   99,8 [9C109D83] [4DD54A30]   CRC32
[CUETools log; Date: 08.09.2011 21:08:17; Version: 2.1.1]
[CTDB TOCID: th_VEXm9KUbfZmNyAmh.P8XRvDE-] disk not present in database.
[AccurateRip ID: 000ba67a-004d5102-6908fe08] found.
Track   [ CRC    ] Status
 01     [fb2ef1ea] (05/18) Accurately ripped
 02     [ccd02758] (04/17) Accurately ripped
 03     [f9586f50] (05/18) Accurately ripped
 04     [04d7c710] (04/17) Accurately ripped
 05     [06a025e3] (05/18) Accurately ripped
 06     [ea2bd91e] (05/18) Accurately ripped
 07     [852dea36] (04/17) Accurately ripped
 08     [dcf69ecd] (04/14) Accurately ripped
Offsetted by -664:
 01     [1270f2a9] (04/18) Accurately ripped
 02     [809895c0] (04/17) Accurately ripped
 03     [d5516592] (04/18) Accurately ripped
 04     [c5eda87d] (04/17) Accurately ripped
 05     [97cf3b5f] (04/18) Accurately ripped
 06     [3295f3e8] (04/18) Accurately ripped
 07     [ab5b629e] (04/17) Accurately ripped
 08     [5a3bbb27] (03/14) Accurately ripped
Offsetted by 705:
 01     [0ea93f49] (07/18) Accurately ripped
 02     [4a1ad839] (07/17) Accurately ripped
 03     [dc6d865b] (07/18) Accurately ripped
 04     [938c079b] (07/17) Accurately ripped
 05     [5c988343] (07/18) Accurately ripped
 06     [69ed689e] (07/18) Accurately ripped
 07     [72bb09ba] (07/17) Accurately ripped
 08     [7cbfee05] (07/14) Accurately ripped
Offsetted by 29:
 01     [d916ed3e] (02/18) Accurately ripped
 02     [4837d561] (02/17) Accurately ripped
 03     [f579e7a8] (02/18) Accurately ripped
 04     [30075b5c] (02/17) Accurately ripped
 05     [a26e1221] (02/18) Accurately ripped
 06     [cfdfcbef] (02/18) Accurately ripped
 07     [078cfd56] (02/17) Accurately ripped
 08     [2dc304db] (00/14) No match but offset
Track Peak [ CRC32  ] [W/O NULL] [  LOG   ]
 --   99,8 [B7B9E1E1] [7690CF52]
 01   99,5 [8D23C328] [9D971D4F]   CRC32
 02   81,1 [F83D87C0] [63042F48]   CRC32
 03   99,5 [47EC2919] [729CEE22]   CRC32
 04   99,8 [CCEFDE14] [F2FF06CB]   CRC32
 05   99,5 [A9998DC5] [8961781C]   CRC32
 06   96,1 [40D8D3E9] [6C96A7B4]   CRC32
 07   99,5 [5050E260] [57688B8C]   CRC32
 08   88,7 [4AAEA962] [F032D881]   CRC32
Правила, инструкции, FAQ!!!
Торрент  Добавлен [26 мар 2019, 20:14] Скачать торрент Магнет ссылка
Скачать торрент
[ Размер 17.46 КБ / Просмотров 5 ]

Статус
Проверен 
 
Размер  530.47 МБ
Приватный: Нет (DHT включён)
.torrent скачан  0
 


     Отправить личное сообщение
   
Страница 1 из 1
Показать сообщения за:  Поле сортировки  
Начать новую тему Ответить на тему


Сейчас этот форум просматривают: нет зарегистрированных пользователей и гости: 0


Вы не можете начинать темы
Вы не можете отвечать на сообщения
Вы не можете редактировать свои сообщения
Вы не можете удалять свои сообщения
Вы не можете добавлять вложения

Перейти:  
cron