Начать новую тему Ответить на тему
Статистика раздачи
Размер: 251.12 МБ | Добавлен: 26 мар 2019, 19:33 | Скачали: 1
Сидеров: 1  [0 байт/сек]    Личеров: 0  [0 байт/сек]
Пред. тема | След. тема 

Автор
Сообщение

СообщениеДобавлено: 26 мар 2019, 19:33 

Ответить с цитатой 

Andrea Corr - Lifelines
Жанр: Irish Pop-Rock
Страна-производитель диска: Ireland
Год издания диска: 2011
Страна: Ireland
Источник: WWW
Аудиокодек: FLAC (*.flac)
Тип рипа: tracks+.cue
Битрейт аудио: lossless
Продолжительность: 42:08
Треклист:
01. I'll Be Seeing You (02:31)
02. Pale Blue Eyes (06:09)
03. Blue Bayou (02:40)
04. From the Morning (03:19)
05. State of Independence (05:38)
06. No 9 Dream (04:13)
07. Tinseltown In the Rain (04:42)
08. They Don't Know (03:09)
09. Lifeline (03:26)
10. Tomorrow In Her Eyes (02:36)
11. Some Things Last a Long Time (03:33)
Код:
Exact Audio Copy V0.99 prebeta 5 from 4. May 2009
EAC extraction logfile from 31. May 2011, 12:14
Andrea Corr / Lifelines
Used drive  : HL-DT-STDVDRAM GH15F   Adapter: 1  ID: 0
Read mode               : Secure
Utilize accurate stream : Yes
Defeat audio cache      : Yes
Make use of C2 pointers : No
Read offset correction                      : 667
Overread into Lead-In and Lead-Out          : No
Fill up missing offset samples with silence : Yes
Delete leading and trailing silent blocks   : No
Null samples used in CRC calculations       : Yes
Used interface                              : Native Win32 interface for Win NT & 2000
Gap handling                                : Appended to previous track
Used output format              : User Defined Encoder
Selected bitrate                : 768 kBit/s
Quality                         : High
Add ID3 tag                     : No
Command line compressor         : C:\Program Files\Exact Audio Copy\FLAC\FLAC.EXE
Additional command line options : -V -8 -T "artist=%a" -T "title=%t" -T "album=%g" -T "date=%y" -T "tracknumber=%n" -T "genre=%m" %s
TOC of the extracted CD
     Track |   Start  |  Length  | Start sector | End sector
    ---------------------------------------------------------
        1  |  0:00.00 |  2:32.16 |         0    |    11415
        2  |  2:32.16 |  6:09.35 |     11416    |    39125
        3  |  8:41.51 |  2:40.71 |     39126    |    51196
        4  | 11:22.47 |  3:19.28 |     51197    |    66149
        5  | 14:42.00 |  5:40.64 |     66150    |    91713
        6  | 20:22.64 |  4:13.38 |     91714    |   110726
        7  | 24:36.27 |  4:44.25 |    110727    |   132051
        8  | 29:20.52 |  3:10.40 |    132052    |   146341
        9  | 32:31.17 |  3:26.66 |    146342    |   161857
       10  | 35:58.08 |  2:37.32 |    161858    |   173664
       11  | 38:35.40 |  3:33.16 |    173665    |   189655
Track  1
     Filename C:\Users\Neil\Documents\EAC Rips\01 I'll Be Seeing You.wav
     Pre-gap length  0:00:02.00
     Peak level 98.4 %
     Track quality 100.0 %
     Test CRC 4CB5D68B
     Copy CRC 4CB5D68B
     Track not present in AccurateRip database
     Copy OK
Track  2
     Filename C:\Users\Neil\Documents\EAC Rips\02 Pale Blue Eyes.wav
     Pre-gap length  0:00:00.15
     Peak level 100.0 %
     Track quality 100.0 %
     Test CRC A86FF9FA
     Copy CRC A86FF9FA
     Track not present in AccurateRip database
     Copy OK
Track  3
     Filename C:\Users\Neil\Documents\EAC Rips\03 Blue Bayou.wav
     Pre-gap length  0:00:00.56
     Peak level 98.4 %
     Track quality 100.0 %
     Test CRC 7B655524
     Copy CRC 7B655524
     Track not present in AccurateRip database
     Copy OK
Track  4
     Filename C:\Users\Neil\Documents\EAC Rips\04 From The Morning.wav
     Pre-gap length  0:00:00.47
     Peak level 98.4 %
     Track quality 100.0 %
     Test CRC AD79C9B6
     Copy CRC AD79C9B6
     Track not present in AccurateRip database
     Copy OK
Track  5
     Filename C:\Users\Neil\Documents\EAC Rips\05 State Of Independence.wav
     Pre-gap length  0:00:00.13
     Peak level 100.0 %
     Track quality 100.0 %
     Test CRC A67EF539
     Copy CRC A67EF539
     Track not present in AccurateRip database
     Copy OK
Track  6
     Filename C:\Users\Neil\Documents\EAC Rips\06 No 9 Dream.wav
     Pre-gap length  0:00:02.66
     Peak level 98.4 %
     Track quality 100.0 %
     Test CRC 26363803
     Copy CRC 26363803
     Track not present in AccurateRip database
     Copy OK
Track  7
     Filename C:\Users\Neil\Documents\EAC Rips\07 Tinseltown In The Rain.wav
     Pre-gap length  0:00:00.63
     Peak level 100.0 %
     Track quality 100.0 %
     Test CRC F1577F55
     Copy CRC F1577F55
     Track not present in AccurateRip database
     Copy OK
Track  8
     Filename C:\Users\Neil\Documents\EAC Rips\08 They Don't Know.wav
     Pre-gap length  0:00:01.20
     Peak level 98.4 %
     Track quality 100.0 %
     Test CRC AC043738
     Copy CRC AC043738
     Track not present in AccurateRip database
     Copy OK
Track  9
     Filename C:\Users\Neil\Documents\EAC Rips\09 Lifeline.wav
     Pre-gap length  0:00:00.72
     Peak level 98.4 %
     Track quality 99.9 %
     Test CRC 2E66DA88
     Copy CRC 2E66DA88
     Track not present in AccurateRip database
     Copy OK
Track 10
     Filename C:\Users\Neil\Documents\EAC Rips\10 Tomorrow In Her Eyes.wav
     Pre-gap length  0:00:00.32
     Peak level 98.4 %
     Track quality 100.0 %
     Test CRC D47F96E8
     Copy CRC D47F96E8
     Track not present in AccurateRip database
     Copy OK
Track 11
     Filename C:\Users\Neil\Documents\EAC Rips\11 Some Things Last A Long Time.wav
     Pre-gap length  0:00:01.07
     Peak level 98.4 %
     Track quality 99.9 %
     Test CRC DA0D872F
     Copy CRC DA0D872F
     Track not present in AccurateRip database
     Copy OK
None of the tracks are present in the AccurateRip database
No errors occurred
End of status report
Код:
REM GENRE Pop
REM DATE 2011
REM DISCID 9109E00B
REM COMMENT "ExactAudioCopy v0.99pb5"
PERFORMER "Andrea Corr"
TITLE "Lifelines"
FILE "01 I'll Be Seeing You.wav" WAVE
  TRACK 01 AUDIO
    TITLE "I'll Be Seeing You"
    PERFORMER "Andrea Corr"
    INDEX 01 00:00:00
  TRACK 02 AUDIO
    TITLE "Pale Blue Eyes"
    PERFORMER "Andrea Corr"
    INDEX 00 02:32:01
FILE "02 Pale Blue Eyes.wav" WAVE
    INDEX 01 00:00:00
  TRACK 03 AUDIO
    TITLE "Blue Bayou"
    PERFORMER "Andrea Corr"
    INDEX 00 06:08:54
FILE "03 Blue Bayou.wav" WAVE
    INDEX 01 00:00:00
  TRACK 04 AUDIO
    TITLE "From The Morning"
    PERFORMER "Andrea Corr"
    INDEX 00 02:40:24
FILE "04 From The Morning.wav" WAVE
    INDEX 01 00:00:00
  TRACK 05 AUDIO
    TITLE "State Of Independence"
    PERFORMER "Andrea Corr"
    INDEX 00 03:19:15
FILE "05 State Of Independence.wav" WAVE
    INDEX 01 00:00:00
  TRACK 06 AUDIO
    TITLE "No 9 Dream"
    PERFORMER "Andrea Corr"
    INDEX 00 05:37:73
FILE "06 No 9 Dream.wav" WAVE
    INDEX 01 00:00:00
  TRACK 07 AUDIO
    TITLE "Tinseltown In The Rain"
    PERFORMER "Andrea Corr"
    INDEX 00 04:12:50
FILE "07 Tinseltown In The Rain.wav" WAVE
    INDEX 01 00:00:00
  TRACK 08 AUDIO
    TITLE "They Don't Know"
    PERFORMER "Andrea Corr"
    INDEX 00 04:43:05
FILE "08 They Don't Know.wav" WAVE
    INDEX 01 00:00:00
  TRACK 09 AUDIO
    TITLE "Lifeline"
    PERFORMER "Andrea Corr"
    INDEX 00 03:09:43
FILE "09 Lifeline.wav" WAVE
    INDEX 01 00:00:00
  TRACK 10 AUDIO
    TITLE "Tomorrow In Her Eyes"
    PERFORMER "Andrea Corr"
    INDEX 00 03:26:34
FILE "10 Tomorrow In Her Eyes.wav" WAVE
    INDEX 01 00:00:00
  TRACK 11 AUDIO
    TITLE "Some Things Last A Long Time"
    PERFORMER "Andrea Corr"
    INDEX 00 02:36:25
FILE "11 Some Things Last A Long Time.wav" WAVE
    INDEX 01 00:00:00
Код:
auCDtect: CD records authenticity detector, version 0.8.2
Copyright (c) 2004 Oleg Berngardt. All rights reserved.
Copyright (c) 2004 Alexander Djourik. All rights reserved.
------------------------------------------------------------
Processing file: [01 - Some Things Last A Long Time.wav]
Detected average hi-boundary frequency: 2.013360e+004 Hz
Detected average lo-boundary frequency: 1.331115e+004 Hz
Detected average hi-cut frequency: 2.166872e+004 Hz
Detected average lo-cut frequency: 8.208040e+003 Hz
Maximum probablis boundary frequency: 2.189100e+004 Hz
Coefficient of nonlinearity of a phase: 1.694275e-001
First order smothness: 3.689490e-001
Second order smothness: 6.842564e-001
------------------------------------------------------------
This track looks like CDDA with probability 100%
------------------------------------------------------------
Processing file: [02 - I'll Be Seeing You.wav]
Detected average hi-boundary frequency: 2.078564e+004 Hz
Detected average lo-boundary frequency: 1.258680e+004 Hz
Detected average hi-cut frequency: 2.182421e+004 Hz
Detected average lo-cut frequency: 1.829065e+004 Hz
Maximum probablis boundary frequency: 2.154100e+004 Hz
Coefficient of nonlinearity of a phase: 9.263744e-001
First order smothness: 3.499385e-001
Second order smothness: 8.923739e-001
------------------------------------------------------------
This track looks like CDDA with probability 100%
------------------------------------------------------------
Processing file: [03 - Pale Blue Eyes.wav]
Detected average hi-boundary frequency: 2.020511e+004 Hz
Detected average lo-boundary frequency: 1.371833e+004 Hz
Detected average hi-cut frequency: 2.134196e+004 Hz
Detected average lo-cut frequency: 9.542050e+003 Hz
Maximum probablis boundary frequency: 2.189100e+004 Hz
Coefficient of nonlinearity of a phase: 2.175772e-001
First order smothness: 3.533266e-001
Second order smothness: 6.413810e-001
------------------------------------------------------------
This track looks like CDDA with probability 99%
------------------------------------------------------------
Processing file: [04 - Blue Bayou.wav]
Detected average hi-boundary frequency: 2.024839e+004 Hz
Detected average lo-boundary frequency: 1.371915e+004 Hz
Detected average hi-cut frequency: 2.184091e+004 Hz
Detected average lo-cut frequency: 8.641942e+003 Hz
Maximum probablis boundary frequency: 2.189100e+004 Hz
Coefficient of nonlinearity of a phase: 3.025947e-001
First order smothness: 4.327146e-001
Second order smothness: 5.498840e-001
------------------------------------------------------------
This track looks like CDDA with probability 100%
------------------------------------------------------------
Processing file: [05 - From The Morning.wav]
Detected average hi-boundary frequency: 2.054515e+004 Hz
Detected average lo-boundary frequency: 1.583974e+004 Hz
Detected average hi-cut frequency: 2.180195e+004 Hz
Detected average lo-cut frequency: 1.123809e+004 Hz
Maximum probablis boundary frequency: 2.189100e+004 Hz
Coefficient of nonlinearity of a phase: 3.184028e-001
First order smothness: 5.452848e-001
Second order smothness: 5.340803e-001
------------------------------------------------------------
This track looks like CDDA with probability 100%
------------------------------------------------------------
Processing file: [06 - State Of Independence.wav]
Detected average hi-boundary frequency: 2.038170e+004 Hz
Detected average lo-boundary frequency: 1.420884e+004 Hz
Detected average hi-cut frequency: 2.172235e+004 Hz
Detected average lo-cut frequency: 1.260306e+004 Hz
Maximum probablis boundary frequency: 2.189100e+004 Hz
Coefficient of nonlinearity of a phase: 2.791392e-001
First order smothness: 4.223996e-001
Second order smothness: 5.974133e-001
------------------------------------------------------------
This track looks like CDDA with probability 100%
------------------------------------------------------------
Processing file: [07 - No 9 Dream.wav]
Detected average hi-boundary frequency: 2.056541e+004 Hz
Detected average lo-boundary frequency: 1.401591e+004 Hz
Detected average hi-cut frequency: 2.179265e+004 Hz
Detected average lo-cut frequency: 1.852811e+004 Hz
Maximum probablis boundary frequency: 2.189100e+004 Hz
Coefficient of nonlinearity of a phase: 6.444585e-001
First order smothness: 3.075791e-001
Second order smothness: 8.428992e-001
------------------------------------------------------------
This track looks like CDDA with probability 100%
------------------------------------------------------------
Processing file: [08 - Tinseltown In The Rain.wav]
Detected average hi-boundary frequency: 2.014752e+004 Hz
Detected average lo-boundary frequency: 1.415549e+004 Hz
Detected average hi-cut frequency: 2.174207e+004 Hz
Detected average lo-cut frequency: 9.204924e+003 Hz
Maximum probablis boundary frequency: 2.189100e+004 Hz
Coefficient of nonlinearity of a phase: 8.331740e-002
First order smothness: 3.541188e-001
Second order smothness: 5.106662e-001
------------------------------------------------------------
This track looks like CDDA with probability 100%
------------------------------------------------------------
Processing file: [09 - They Don't Know.wav]
Detected average hi-boundary frequency: 2.024504e+004 Hz
Detected average lo-boundary frequency: 1.437329e+004 Hz
Detected average hi-cut frequency: 2.180272e+004 Hz
Detected average lo-cut frequency: 1.329595e+004 Hz
Maximum probablis boundary frequency: 2.154700e+004 Hz
Coefficient of nonlinearity of a phase: 6.693072e-001
First order smothness: 3.686275e-001
Second order smothness: 6.563725e-001
------------------------------------------------------------
This track looks like CDDA with probability 100%
------------------------------------------------------------
Processing file: [10 - Lifeline.wav]
Detected average hi-boundary frequency: 2.038291e+004 Hz
Detected average lo-boundary frequency: 1.216998e+004 Hz
Detected average hi-cut frequency: 2.085304e+004 Hz
Detected average lo-cut frequency: 9.017425e+003 Hz
Maximum probablis boundary frequency: 2.150400e+004 Hz
Coefficient of nonlinearity of a phase: 8.029801e-002
First order smothness: 4.493471e-001
Second order smothness: 6.479063e-001
------------------------------------------------------------
This track looks like CDDA with probability 87%
------------------------------------------------------------
Processing file: [11 - Tomorrow In Her Eyes.wav]
Detected average hi-boundary frequency: 2.028249e+004 Hz
Detected average lo-boundary frequency: 1.365433e+004 Hz
Detected average hi-cut frequency: 2.161430e+004 Hz
Detected average lo-cut frequency: 1.038475e+004 Hz
Maximum probablis boundary frequency: 2.189600e+004 Hz
Coefficient of nonlinearity of a phase: 9.131352e-002
First order smothness: 3.728410e-001
Second order smothness: 6.926742e-001
------------------------------------------------------------
This track looks like CDDA with probability 99%
------------------------------------------------------------
Final Conclusion:
------------------------------------------------------------
These tracks looks like CDDA with probability 100%
Lifelines is a real singers album - a deeply personal, warm and intimate exploration of her inspirations as an artist - and features a diverse, and sometimes surprising, collection of songs all built around Andrea's sublime and evocative voice. Produced by John Reynolds and featuring co-production on several tracks by Brian Eno, Lifelines is a personally curated collection of songs that have resonated throughout Andrea's life and includes stunning versions of songs by a range of artists from Velvet Underground, Kirsty McColl and Harry Nilsson to Ron Sexsmith, Nick Drake and The Blue Nile.
Правила, инструкции, FAQ!!!
Торрент  Добавлен [26 мар 2019, 19:33] Скачать торрент Магнет ссылка
Скачать торрент
[ Размер 20.98 КБ / Просмотров 2 ]

Статус
Проверен 
 
Размер  251.12 МБ
Приватный: Нет (DHT включён)
.torrent скачан  1
 


     Отправить личное сообщение
   
Страница 1 из 1
Показать сообщения за:  Поле сортировки  
Начать новую тему Ответить на тему


Сейчас этот форум просматривают: нет зарегистрированных пользователей и гости: 0


Вы не можете начинать темы
Вы не можете отвечать на сообщения
Вы не можете редактировать свои сообщения
Вы не можете удалять свои сообщения
Вы не можете добавлять вложения

Перейти:  
cron