Начать новую тему Ответить на тему
Статистика раздачи
Размер: 261.56 МБ | Добавлен: 26 мар 2019, 19:33 | Скачали: 0
Сидеров: 0  [0 байт/сек]    Личеров: 0  [0 байт/сек]
Пред. тема | След. тема 

Автор
Сообщение

СообщениеДобавлено: 26 мар 2019, 19:33 

Ответить с цитатой 

Andrea Corr (from The Corrs) - Ten Feet High
Country: Ireland
Genre: Irish Pop-Rock
Original Release Date: 2007
Format: FLAC (tracks)
Bitrate audio: lossless
Duration: 38:24
Tracklist:
01. Hello Boys
02. Anybody There
03. Shame on You (To Keep My Love from Me)
04. I Do
05. Ten Feet High
06. Champagne from a Straw
07. 24 Hours
08. This Is What It's All About
09. Take Me I'm Yours
10. Stupidest Girl in the World
11. Ideal World
12. Shame on You (To Keep My Love from Me) [Radio Edit]
She was born in Dundalk, County Louth, Ireland, the youngest daughter of Jean and Gerry Corr,
two musicians. She and her elder siblings, sisters Caroline and Sharon Corr and brother Jim Corr,
formed The Corrs to audition for the 1991 film The Commitments. Although all four appeared in the
film, Andrea was the only one to be given a speaking part. But several years later, in another
fleeting appearance in a major film, she was wanted strictly for a singing role - it was the
musical Evita, in which she played Juan Peron's mistress, who is abruptly displaced by Madonna's
title character. In 2002 a chance for Andrea to launch a more extensive acting career appeared
to open up as she was strongly rumoured to have been offered the role of Lara in a fresh British
television production of Boris Pasternak's classic novel Doctor Zhivago. The character was however
ultimately played by the then little known Keira Knightley. As the youngest member of the band,
Andrea joined directly from school. She usually performs on stage in her bare feet.
As of March 2006 The Corrs are taking a sabbatical from music as Jim, Caroline, and Sharon all
have families of their own and need the respite to spend more time with them. In November of 2006,
the band released a second greatest hits compilation, titled "Dreams: The Ultimate Corrs Collection".
Andrea has recorded her first solo album entitled Ten Feet High. The album, which was released in
the third week of June 2007, is produced by Nellee Hooper and executive produced by U2's Bono.
Besides singing, she's also playing the piano. Eleven tracks are penned by Andrea herself, except
for one, which is a cover of Squeeze's "Take Me I'm Yours". June 3rd saw the first single being
aired on radio across the Republic of Ireland.
Код:
EAC extraction logfile from 25. September 2007, 12:52 for CD
Andrea Corr / Ten Feet High
Used drive  : _NEC    DVD_RW ND-3551A   Adapter: 0  ID: 0
Read mode   : Secure with NO C2, accurate stream, disable cache
Read offset correction : 48
Overread into Lead-In and Lead-Out : No
Used output format : C:\Program Files\Exact Audio Copy\flac.exe   (User Defined Encoder)
                     320 kBit/s
                     Additional command line options : -5 -V -T "ARTIST=%a" -T "TITLE=%t" -T "ALBUM=%g" -T "DATE=%y" -T "TRACKNUMBER=%n" -T "GENRE=%m" -T "COMMENT=EAC Flac 1.1.2 -5" %s
Other options      :
    Fill up missing offset samples with silence : Yes
    Delete leading and trailing silent blocks : No
    Installed external ASPI interface
Track  1
     Filename F:\Stuff\Andrea Corr - Ten Feet High\01 - Hello Boys.wav
     Peak level 100.0 %
     Track quality 100.0 %
     Test CRC FA2B0634
     Copy CRC FA2B0634
     Copy OK
Track  2
     Filename F:\Stuff\Andrea Corr - Ten Feet High\02 - Anybody There.wav
     Peak level 100.0 %
     Track quality 99.9 %
     Test CRC F312C4C9
     Copy CRC F312C4C9
     Copy OK
Track  3
     Filename F:\Stuff\Andrea Corr - Ten Feet High\03 - Shame On You (To Keep My Love From Me).wav
     Peak level 100.0 %
     Track quality 99.9 %
     Test CRC AF36E22C
     Copy CRC AF36E22C
     Copy OK
Track  4
     Filename F:\Stuff\Andrea Corr - Ten Feet High\04 - I Do.wav
     Peak level 88.7 %
     Track quality 100.0 %
     Test CRC 9D340B9C
     Copy CRC 9D340B9C
     Copy OK
Track  5
     Filename F:\Stuff\Andrea Corr - Ten Feet High\05 - Ten Feet High.wav
     Peak level 100.0 %
     Track quality 100.0 %
     Test CRC 09F672A1
     Copy CRC 09F672A1
     Copy OK
Track  6
     Filename F:\Stuff\Andrea Corr - Ten Feet High\06 - Champagne From A Straw.wav
     Peak level 100.0 %
     Track quality 100.0 %
     Test CRC 0EC7B64B
     Copy CRC 0EC7B64B
     Copy OK
Track  7
     Filename F:\Stuff\Andrea Corr - Ten Feet High\07 - 24 Hours.wav
     Peak level 100.0 %
     Track quality 100.0 %
     Test CRC E6DA587B
     Copy CRC E6DA587B
     Copy OK
Track  8
     Filename F:\Stuff\Andrea Corr - Ten Feet High\08 - This Is What It's All About.wav
     Peak level 100.0 %
     Track quality 100.0 %
     Test CRC 4C255EDB
     Copy CRC 4C255EDB
     Copy OK
Track  9
     Filename F:\Stuff\Andrea Corr - Ten Feet High\09 - Take Me I'm Yours.wav
     Peak level 100.0 %
     Track quality 100.0 %
     Test CRC 687B22D5
     Copy CRC 687B22D5
     Copy OK
Track 10
     Filename F:\Stuff\Andrea Corr - Ten Feet High\10 - Stupidest Girl In The World.wav
     Peak level 100.0 %
     Track quality 100.0 %
     Test CRC 759EAD81
     Copy CRC 759EAD81
     Copy OK
Track 11
     Filename F:\Stuff\Andrea Corr - Ten Feet High\11 - Ideal World.wav
     Peak level 99.6 %
     Track quality 100.0 %
     Test CRC 44ADA8F1
     Copy CRC 44ADA8F1
     Copy OK
Track 12
     Filename F:\Stuff\Andrea Corr - Ten Feet High\12 - Shame On You (To Keep My Love From Me) [radio edit].wav
     Peak level 98.2 %
     Track quality 100.0 %
     Test CRC 0F2642A7
     Copy CRC 0F2642A7
     Copy OK
No errors occured
End of status report
Правила, инструкции, FAQ!!!
Торрент  Добавлен [26 мар 2019, 19:33] Скачать торрент Магнет ссылка
Скачать торрент
[ Размер 11.54 КБ / Просмотров 0 ]

Статус
Проверен 
 
Размер  261.56 МБ
Приватный: Нет (DHT включён)
.torrent скачан  0
 


     Отправить личное сообщение
   
Страница 1 из 1
Показать сообщения за:  Поле сортировки  
Начать новую тему Ответить на тему


Сейчас этот форум просматривают: нет зарегистрированных пользователей и гости: 0


Вы не можете начинать темы
Вы не можете отвечать на сообщения
Вы не можете редактировать свои сообщения
Вы не можете удалять свои сообщения
Вы не можете добавлять вложения

Перейти:  
cron