Начать новую тему Ответить на тему
Статистика раздачи
Размер: 632.97 МБ | Добавлен: 26 июн 2020, 17:11 | Скачали: 0
Сидеров: 0  [0 байт/сек]    Личеров: 0  [0 байт/сек]
Пред. тема | След. тема 

Автор
Сообщение

СообщениеДобавлено: 26 июн 2020, 17:11 

Ответить с цитатой 

Wumpscut - Deadmaker
Жанр: Industrial
Год выпуска диска: 1999
Производитель диска: Германия
Аудио кодек: FLAC
Тип рипа: image+.cue
Битрейт аудио: lossless
Продолжительность: 1:44
Трэклист:
Disc # 1
1. Wumpscut (original mix)
3. Forma tadre
5. Covenant
7. Haujobb
9. Cleen
11. Notstandskomitee
13. Suicide commando
15. Infact
17. VNV nation
Disk # 2
1. Wumpscut (original mix)
3. Fav
5. B-ton-k
7. Jugend staat/death industry
9. Infact
11. Puls/kk
13. Notstandskomitee
15. Dr. Mabuse
17. Aghast view
19. Noyce
Exact Audio Copy V0.99 prebeta 4 from 23. January 2008
Отчёт EAC об извлечении, выполненном 3. марта 2009, 17:36
Wumpscut / Deadmaker Disc 1
Дисковод: TSSTcorpCDDVDW SH-S223Q Adapter: 5 ID: 0
Режим чтения : Достоверность
Использование точного потока : Да
Отключение кэша аудио : Да
Использование указателей C2 : Нет
Коррекция смещения при чтении : 6
Способность читать области Lead-in и Lead-out : Нет
Заполнение пропущенных сэмплов тишиной : Да
Удаление блоков с тишиной в начале и конце : Нет
При вычислениях CRC использовались нулевые сэмплы : Да
Интерфейс : Встроенный Win32-интерфейс для Win NT/2000
Выходной формат : Внутренние WAV-операции
Формат сэмплов : 44.100 Гц; 16 бит; стерео
TOC извлечённого CD
Трек | Старт | Длительность | Начальный сектор | Конечный сектор
---------------------------------------------------------------------
1 | 0:00.00 | 4:24.23 | 0 | 19822
2 | 4:24.23 | 0:42.42 | 19823 | 23014
3 | 5:06.65 | 5:23.27 | 23015 | 47266
4 | 10:30.17 | 0:42.04 | 47267 | 50420
5 | 11:12.21 | 6:15.36 | 50421 | 78581
6 | 17:27.57 | 0:42.04 | 78582 | 81735
7 | 18:09.61 | 6:07.23 | 81736 | 109283
8 | 24:17.09 | 0:42.04 | 109284 | 112437
9 | 24:59.13 | 5:08.28 | 112438 | 135565
10 | 30:07.41 | 0:42.04 | 135566 | 138719
11 | 30:49.45 | 4:19.09 | 138720 | 158153
12 | 35:08.54 | 0:42.04 | 158154 | 161307
13 | 35:50.58 | 6:05.21 | 161308 | 188703
14 | 41:56.04 | 0:42.42 | 188704 | 191895
15 | 42:38.46 | 3:52.25 | 191896 | 209320
16 | 46:30.71 | 0:41.25 | 209321 | 212420
17 | 47:12.21 | 4:44.69 | 212421 | 233789
Характеристики диапазона извлечения и сообщения об ошибках
Выбранный диапазон
Имя файла D:\Temp\CD #1\Wumpscut - Deadmaker Disc 1.wav
Пиковый уровень 100.0 %
Качество диапазона 100.0 %
CRC копии 69D71EC4
Копирование... OK
Ошибок не произошло
AccurateRip: сводка
Трек 1 точное извлечение (доверие 4) [231A46FD]
Трек 2 точное извлечение (доверие 3) [FE248877]
Трек 3 точное извлечение (доверие 4) [B25AB674]
Трек 4 точное извлечение (доверие 3) [7C0FB7FD]
Трек 5 точное извлечение (доверие 4) [A8F9BC89]
Трек 6 точное извлечение (доверие 3) [63E48AC5]
Трек 7 точное извлечение (доверие 4) [89A32A77]
Трек 8 точное извлечение (доверие 3) [CBBE397C]
Трек 9 точное извлечение (доверие 4) [00ECD1BD]
Трек 10 точное извлечение (доверие 3) [53908728]
Трек 11 точное извлечение (доверие 4) [4A2D75EC]
Трек 12 точное извлечение (доверие 3) [C89437FE]
Трек 13 точное извлечение (доверие 4) [C3AF7ED7]
Трек 14 точное извлечение (доверие 3) [E390F097]
Трек 15 точное извлечение (доверие 4) [6797614C]
Трек 16 точное извлечение (доверие 3) [3BC54F11]
Трек 17 точное извлечение (доверие 4) [03FC334F]
Все треки извлечены точно
Конец отчёта
Exact Audio Copy V0.99 prebeta 4 from 23. January 2008
Отчёт EAC об извлечении, выполненном 3. марта 2009, 16:52
Wumpscut / Deadmaker Disc 2
Дисковод: TSSTcorpCDDVDW SH-S223Q Adapter: 5 ID: 0
Режим чтения : Достоверность
Использование точного потока : Да
Отключение кэша аудио : Да
Использование указателей C2 : Нет
Коррекция смещения при чтении : 6
Способность читать области Lead-in и Lead-out : Нет
Заполнение пропущенных сэмплов тишиной : Да
Удаление блоков с тишиной в начале и конце : Нет
При вычислениях CRC использовались нулевые сэмплы : Да
Интерфейс : Встроенный Win32-интерфейс для Win NT/2000
Выходной формат : Внутренние WAV-операции
Формат сэмплов : 44.100 Гц; 16 бит; стерео
TOC извлечённого CD
Трек | Старт | Длительность | Начальный сектор | Конечный сектор
---------------------------------------------------------------------
1 | 0:00.32 | 4:24.20 | 32 | 19851
2 | 4:24.52 | 0:42.23 | 19852 | 23024
3 | 5:07.00 | 3:56.10 | 23025 | 40734
4 | 9:03.10 | 0:42.40 | 40735 | 43924
5 | 9:45.50 | 4:21.30 | 43925 | 63529
6 | 14:07.05 | 0:42.47 | 63530 | 66726
7 | 14:49.52 | 5:32.45 | 66727 | 91671
8 | 20:22.22 | 0:42.25 | 91672 | 94846
9 | 21:04.47 | 3:42.13 | 94847 | 111509
10 | 24:46.60 | 0:42.27 | 111510 | 114686
11 | 25:29.12 | 4:07.40 | 114687 | 133251
12 | 29:36.52 | 0:42.08 | 133252 | 136409
13 | 30:18.60 | 4:25.25 | 136410 | 156309
14 | 34:44.10 | 0:42.17 | 156310 | 159476
15 | 35:26.27 | 5:49.30 | 159477 | 185681
16 | 41:15.57 | 0:42.10 | 185682 | 188841
17 | 41:57.67 | 4:02.20 | 188842 | 207011
18 | 46:00.12 | 0:42.13 | 207012 | 210174
19 | 46:42.25 | 4:42.50 | 210175 | 231374
Характеристики диапазона извлечения и сообщения об ошибках
Выбранный диапазон
Имя файла D:\Temp\Wumpscut - Deadmaker Disc 2.wav
Пиковый уровень 100.0 %
Качество диапазона 100.0 %
CRC копии 7205D538
Копирование... OK
Ошибок не произошло
AccurateRip: сводка
Трек 1 точное извлечение (доверие 4) [B43EA592]
Трек 2 точное извлечение (доверие 4) [1E470BE7]
Трек 3 точное извлечение (доверие 5) [F96E074E]
Трек 4 точное извлечение (доверие 4) [70840145]
Трек 5 точное извлечение (доверие 5) [997CBB77]
Трек 6 точное извлечение (доверие 4) [A8193C70]
Трек 7 точное извлечение (доверие 5) [E862ED6E]
Трек 8 точное извлечение (доверие 4) [42C90B5B]
Трек 9 точное извлечение (доверие 5) [5E8EA25E]
Трек 10 точное извлечение (доверие 4) [BC4068B6]
Трек 11 точное извлечение (доверие 5) [CED90395]
Трек 12 точное извлечение (доверие 4) [CB5EC601]
Трек 13 точное извлечение (доверие 5) [9924F60B]
Трек 14 точное извлечение (доверие 4) [85FE4866]
Трек 15 точное извлечение (доверие 5) [0BDF60AD]
Трек 16 точное извлечение (доверие 4) [79972929]
Трек 17 точное извлечение (доверие 5) [225FB55B]
Трек 18 точное извлечение (доверие 4) [486A2BEE]
Трек 19 точное извлечение (доверие 5) [A3B69A8C]
Доп. информация: Очень редкий альбом. Рип с оригинальных немецких CD.
Правила, инструкции, FAQ!!!
Торрент  Добавлен [26 июн 2020, 17:11] Скачать торрент Магнет ссылка
Скачать торрент
[ Размер 13.48 КБ / Просмотров 3 ]

Статус
Проверен 
 
Размер  632.97 МБ
Приватный: Нет (DHT включён)
.torrent скачан  0
 


     Отправить личное сообщение
   
Страница 1 из 1
Показать сообщения за:  Поле сортировки  
Начать новую тему Ответить на тему


Сейчас этот форум просматривают: нет зарегистрированных пользователей и гости: 0


Вы не можете начинать темы
Вы не можете отвечать на сообщения
Вы не можете редактировать свои сообщения
Вы не можете удалять свои сообщения
Вы не можете добавлять вложения

Перейти:  
cron