Начать новую тему Ответить на тему
Статистика раздачи
Размер: 343.48 МБ | Добавлен: 26 июн 2020, 20:04 | Скачали: 0
Сидеров: 1  [0 байт/сек]    Личеров: 0  [0 байт/сек]
Пред. тема | След. тема 

Автор
Сообщение

СообщениеДобавлено: 26 июн 2020, 20:04 

Ответить с цитатой 

The Synthetic Dream Foundation - Tendrils Of Pretty
Жанр: Industrial / Synthpop / Ethereal
Год выпуска диска: 2006
Производитель диска: US
Аудио кодек: APE
Тип рипа: image+.cue
Битрейт аудио: lossless
Продолжительность: 50:41
Трэклист:
1 Auf Dem See (5:45)
Vocals - Summer Bowman
2 Amongst The Trolls (5:16)
3 Assiki: Divine Messenger (7:30)
Vocals - Aaminha Kerdelen
4 Regeneration Of The Damned (5:18)
5 Trapeze (3:16)
Vocals - Hannah Fury
6 Eidolon (5:06)
Vocals - Samantha Bouqin
7 Ophelia's Mechanical Wings (7:42)
8 Puzzlebox (5:03)
Vocals - Tamara Kent
9 How Love Remembered Lavender (5:38)
Vocals - Samantha Bouqin
Доп. информация: Mythical Records; Myth0001
[released on black picture CD-R]
Код:
Exact Audio Copy V0.99 prebeta 4 from 23. February 2008
EAC extraction logfile from 11. February 2009, 13:17
The Synthetic Dream Foundation / Tendrils Of Pretty
Used drive  : PIONEER DVD-RW  DVR-112D   Adapter: 1  ID: 1
Read mode               : Secure
Utilize accurate stream : Yes
Defeat audio cache      : Yes
Make use of C2 pointers : No
Read offset correction                      : 48
Overread into Lead-In and Lead-Out          : No
Fill up missing offset samples with silence : Yes
Delete leading and trailing silent blocks   : No
Null samples used in CRC calculations       : Yes
Used interface                              : Installed external ASPI interface
Used output format : Internal WAV Routines
Sample format      : 44.100 Hz; 16 Bit; Stereo
TOC of the extracted CD
     Track |   Start  |  Length  | Start sector | End sector
    ---------------------------------------------------------
        1  |  0:00.00 |  5:45.15 |         0    |    25889
        2  |  5:45.15 |  5:16.30 |     25890    |    49619
        3  | 11:01.45 |  7:30.59 |     49620    |    83428
        4  | 18:32.29 |  5:18.60 |     83429    |   107338
        5  | 23:51.14 |  3:16.37 |    107339    |   122075
        6  | 27:07.51 |  5:06.60 |    122076    |   145085
        7  | 32:14.36 |  7:42.60 |    145086    |   179795
        8  | 39:57.21 |  5:03.46 |    179796    |   202566
        9  | 45:00.67 |  5:38.29 |    202567    |   227945
Range status and errors
Selected range
   Filename H:\The Synthetic Dream Foundation - Tendrils Of Pretty\CDImage.wav
   Peak level 97.7 %
   Range quality 100.0 %
   Test CRC 7A170E9E
   Copy CRC 7A170E9E
   Copy OK
No errors occurred
AccurateRip summary
Track  1  not present in database
Track  2  not present in database
Track  3  not present in database
Track  4  not present in database
Track  5  not present in database
Track  6  not present in database
Track  7  not present in database
Track  8  not present in database
Track  9  not present in database
None of the tracks are present in the AccurateRip database
End of status report
Код:
AUDIOCHECKER v2.0 beta (build 457) - by Dester - opdester@freemail.hu
~~~~~~~~~~~~~~~~~~~~~~~~~~~~~~~~~~
-=== DO NOT EDIT THIS FILE! ===-
Path: ...\The Synthetic Dream Foundation - Tendrils Of Pretty
01 -=- CDImage.wav -=- CDDA (99%)
162884180
Сканы в комплекте.
Понравилась раздача? Нажми на кнопочку "Спасибо", а также плюсони мне в репутацию
Правила, инструкции, FAQ!!!
Торрент  Добавлен [26 июн 2020, 20:04] Скачать торрент Магнет ссылка
Скачать торрент
[ Размер 14.21 КБ / Просмотров 12 ]

Статус
Проверен 
 
Размер  343.48 МБ
Приватный: Нет (DHT включён)
.torrent скачан  0
 


     Отправить личное сообщение
   
Страница 1 из 1
Показать сообщения за:  Поле сортировки  
Начать новую тему Ответить на тему


Сейчас этот форум просматривают: нет зарегистрированных пользователей и гости: 0


Вы не можете начинать темы
Вы не можете отвечать на сообщения
Вы не можете редактировать свои сообщения
Вы не можете удалять свои сообщения
Вы не можете добавлять вложения

Перейти:  
cron