Начать новую тему Ответить на тему
Статистика раздачи
Размер: 442.59 МБ | Добавлен: 26 июн 2020, 16:50 | Скачали: 0
Сидеров: 0  [0 байт/сек]    Личеров: 0  [0 байт/сек]
Пред. тема | След. тема 

Автор
Сообщение

СообщениеДобавлено: 26 июн 2020, 16:50 

Ответить с цитатой 

Coriolis / The Endless Funeral
Жанр: industrial / synth metal
Страна-производитель диска: USA
Год издания диска: 2010
Издатель (лейбл): Youngside Records
Аудио кодек: FLAC (*.flac)
Тип рипа: image+.cue
Битрейт аудио: lossless
Продолжительность: 1:03:28.58
Источник (релизер): Физический носитель
Наличие сканов в содержимом раздачи: да
Треклист:
01. Intro [2:04]
02. Welcome To My World (Part 1) [3:28]
03. Thank You [4:10]
04. All For One [3:59]
05. Lie [5:31]
06. Same As It Ever Was [3:22]
07. Everything Must Go [4:18]
08. Welcome To My World (Part 2) [5:35]
09. See You In Hell [9:11]
10. The Endless Funeral [6:26]
11. Weight Of The World [6:57]
12. Welcome To My World (Part 3) [8:28]
Код:
Exact Audio Copy V0.99 prebeta 5 from 4. May 2009
Отчёт EAC об извлечении, выполненном 18. декабря 2010, 9:43
Coriolis / The Endless Funeral
Дисковод: Optiarc DVD RW AD-7173A   Adapter: 0  ID: 0
Режим чтения                 : Достоверность
Использование точного потока : Да
Отключение кэша аудио        : Да
Использование указателей C2  : Нет
Коррекция смещения при чтении                     : 48
Способность читать области Lead-in и Lead-out     : Нет
Заполнение пропущенных сэмплов тишиной            : Да
Удаление блоков с тишиной в начале и конце        : Нет
При вычислениях CRC использовались нулевые сэмплы : Да
Интерфейс                                         : Установленный внешний ASPI-интерфейс
Выходной формат          : Пользовательский кодировщик
Выбранный битрейт        : 1024 kBit/s
Качество                 : Высокий
Добавление ID3-тэга      : Нет
Утилита сжатия           : C:\Program Files\Exact Audio Copy\flac.exe
Дополнительные параметры : -6 -V -T "ARTIST=%a" -T "TITLE=%t" -T "ALBUM=%g" -T "DATE=%y" -T "TRACKNUMBER=%n" -T "GENRE=%m" -T "COMMENT=%e" %s -o %d
TOC извлечённого CD
     Трек |   Старт  | Длительность | Начальный сектор | Конечный сектор
    ---------------------------------------------------------------------
       1  |  0:00.00 |    2:03.39   |           0      |       9263
       2  |  2:03.39 |    3:27.71   |        9264      |      24859
       3  |  5:31.35 |    4:09.50   |       24860      |      43584
       4  |  9:41.10 |    3:59.00   |       43585      |      61509
       5  | 13:40.10 |    5:31.23   |       61510      |      86357
       6  | 19:11.33 |    3:22.15   |       86358      |     101522
       7  | 22:33.48 |    4:17.42   |      101523      |     120839
       8  | 26:51.15 |    5:34.72   |      120840      |     145961
       9  | 32:26.12 |    9:10.74   |      145962      |     187285
      10  | 41:37.11 |    6:26.29   |      187286      |     216264
      11  | 48:03.40 |    6:57.23   |      216265      |     247562
      12  | 55:00.63 |    8:27.70   |      247563      |     285657
Характеристики диапазона извлечения и сообщения об ошибках
Выбранный диапазон
     Имя файла H:\СКАЧКА\FLAC\1 TORRENT\Coriolis - The Endless Funeral.wav
     Пиковый уровень 100.0 %
     Качество диапазона 99.9 %
     CRC теста 7F1A79BE
     CRC копии 7F1A79BE
     Копирование... OK
Ошибок не произошло
AccurateRip: сводка
Трек  1  нет в базе данных
Трек  2  нет в базе данных
Трек  3  нет в базе данных
Трек  4  нет в базе данных
Трек  5  нет в базе данных
Трек  6  нет в базе данных
Трек  7  нет в базе данных
Трек  8  нет в базе данных
Трек  9  нет в базе данных
Трек 10  нет в базе данных
Трек 11  нет в базе данных
Трек 12  нет в базе данных
Ни одного трека нет в базе AccurateRip
Конец отчёта
Правила, инструкции, FAQ!!!
Торрент  Добавлен [26 июн 2020, 16:50] Скачать торрент Магнет ссылка
Скачать торрент
[ Размер 18.24 КБ / Просмотров 3 ]

Статус
Проверен 
 
Размер  442.59 МБ
Приватный: Нет (DHT включён)
.torrent скачан  0
 


     Отправить личное сообщение
   
Страница 1 из 1
Показать сообщения за:  Поле сортировки  
Начать новую тему Ответить на тему


Сейчас этот форум просматривают: нет зарегистрированных пользователей и гости: 0


Вы не можете начинать темы
Вы не можете отвечать на сообщения
Вы не можете редактировать свои сообщения
Вы не можете удалять свои сообщения
Вы не можете добавлять вложения

Перейти:  
cron