Начать новую тему Ответить на тему
Статистика раздачи
Размер: 428.87 МБ | Добавлен: 26 мар 2019, 19:57 | Скачали: 0
Сидеров: 0  [0 байт/сек]    Личеров: 0  [0 байт/сек]
Пред. тема | След. тема 

Автор
Сообщение

СообщениеДобавлено: 26 мар 2019, 19:57 

Ответить с цитатой 

Zeromancer - Zzyzx
Жанр: Industrial Rock
Год выпуска диска: 2003
Производитель диска: Россия
Аудио кодек: FLAC
Тип рипа: image+.cue
Битрейт аудио: lossless(1001 kbps)
Продолжительность: 00:57:30
Трэклист:
01. Teenage Recoil [00:04:39]
02. Hollywood [00:04:36]
03. Famous Last Words [00:04:34]
04. Erotic Saints [00:03:48]
05. Idiot Music [00:04:38]
06. Stop The Noise! [00:04:12]
07. Feed You With a Kiss [00:03:50]
08. Lamp Halo [00:04:07]
09. Mosquito Coil [00:04:35]
10. Blood Music [00:04:20]
11. New Madonna [00:04:31]
12. Gone to Your Head [00:04:18]
13. Fractured (Exclusive bonus track) [00:05:15]
Доп. информация:
Exact Audio Copy V0.99 prebeta 2 from 28. July 2007
Отчёт EAC об извлечении, выполненном 25. марта 2009, 19:40
Zeromancer / Zzyxx
Дисковод: TOSHIBA CD/DVDW SD-R5372 Adapter: 1 ID: 0
Режим чтения : Достоверность
Использование точного потока : Да
Отключение кэша аудио : Да
Использование указателей C2 : Нет
Коррекция смещения при чтении : 704
Способность читать области Lead-in и Lead-out : Нет
Заполнение пропущенных сэмплов тишиной : Да
Удаление блоков с тишиной в начале и конце : Нет
При вычислениях CRC использовались нулевые сэмплы : Да
Интерфейс : Установленный внешний ASPI-интерфейс
Выходной формат : Пользовательский кодировщик
Выбранный битрейт : 1024 kBit/s
Качество : Высокий
Добавление ID3-тэга : Да
Утилита сжатия : C:\Program Files\Exact Audio Copy\Flac\flac.exe
Дополнительные параметры : --best -V -T "date=%y" -T "genre=%m" %s
TOC извлечённого CD
Трек | Старт | Длительность | Начальный сектор | Конечный сектор
---------------------------------------------------------------------
1 | 0:00.00 | 4:39.68 | 0 | 20992
2 | 4:39.68 | 4:36.27 | 20993 | 41719
3 | 9:16.20 | 4:34.66 | 41720 | 62335
4 | 13:51.11 | 3:48.02 | 62336 | 79437
5 | 17:39.13 | 4:38.14 | 79438 | 100301
6 | 22:17.27 | 4:12.70 | 100302 | 119271
7 | 26:30.22 | 3:50.06 | 119272 | 136527
8 | 30:20.28 | 4:07.33 | 136528 | 155085
9 | 34:27.61 | 4:35.61 | 155086 | 175771
10 | 39:03.47 | 4:22.53 | 175772 | 195474
11 | 43:26.25 | 4:31.39 | 195475 | 215838
12 | 47:57.64 | 4:18.58 | 215839 | 235246
13 | 52:16.47 | 5:15.39 | 235247 | 258910
Характеристики диапазона извлечения и сообщения об ошибках
Выбранный диапазон
Имя файла C:\Documents and Settings\Майк\Рабочий стол\Zeromancer - Zzyxx.wav
Пиковый уровень 98.8 %
Качество диапазона 99.9 %
CRC копии EACB6573
Копирование... OK
Ошибок не произошло
AccurateRip: сводка
Трек 1 нет в базе данных
Трек 2 нет в базе данных
Трек 3 нет в базе данных
Трек 4 нет в базе данных
Трек 5 нет в базе данных
Трек 6 нет в базе данных
Трек 7 нет в базе данных
Трек 8 нет в базе данных
Трек 9 нет в базе данных
Трек 10 нет в базе данных
Трек 11 нет в базе данных
Трек 12 нет в базе данных
Трек 13 нет в базе данных
Ни одного трека нет в базе AccurateRip
Конец отчёта
Третий по счету полноформатный альбом норвежской группы. Название происходит из надписи на дорожном знаке, увиденном участниками группы во время американского тура. В San Bernardino County, California есть местечко Zzyzx, названное так специально, чтобы быть последним в списке населённых пунктов США.
Айрондовский диск отличается от оригинала полиграфией и наличием бонусного трека.
TAU, полиграфия incl.
Правила, инструкции, FAQ!!!
Торрент  Добавлен [26 мар 2019, 19:57] Скачать торрент Магнет ссылка
Скачать торрент
[ Размер 18.31 КБ / Просмотров 0 ]

Статус
Проверен 
 
Размер  428.87 МБ
Приватный: Нет (DHT включён)
.torrent скачан  0
 


     Отправить личное сообщение
   
Страница 1 из 1
Показать сообщения за:  Поле сортировки  
Начать новую тему Ответить на тему


Сейчас этот форум просматривают: нет зарегистрированных пользователей и гости: 0


Вы не можете начинать темы
Вы не можете отвечать на сообщения
Вы не можете редактировать свои сообщения
Вы не можете удалять свои сообщения
Вы не можете добавлять вложения

Перейти:  
cron