Начать новую тему Ответить на тему
Статистика раздачи
Размер: 408.27 МБ | Добавлен: 26 мар 2019, 21:05 | Скачали: 0
Сидеров: 0  [0 байт/сек]    Личеров: 0  [0 байт/сек]
Пред. тема | След. тема 

Автор
Сообщение

СообщениеДобавлено: 26 мар 2019, 21:05 

Ответить с цитатой 

Zeromancer - Clone Your Lover
Жанр: Industrial Rock
Год выпуска диска: 2000
Производитель диска: Warner Music Manufacturing Europe (Germany)
Аудио кодек: FLAC
Тип рипа: tracks+.cue
Продолжительность: 37:25
Трэклист:
1. Clone your Lover (3:50)
2. Flirt [with me] (feat. Free Dominguez) (3:59)
3. Something for the Pain (3:32)
4. Split Seconds (3:16)
5. Fade to Black (3:55)
6. God bless the Models (4:10)
7. Opelwerk (3:27)
8. Flagellation (3:53)
9. Die of a broken Heart (3:25)
10. House of Cards (feat. Free Dominguez) (3:58)
Доп. информация: Дебютный альбом норвежской группы Zeromancer, образовавшейся преимущественно из участников легендарной Seigmen. В данной раздаче находится рип самого первого издания альбома, плюс высококачественные сканы (как только диск попал в руки, сразу поехал к брату за профессиональным сканером).
Exact Audio Copy V0.99 prebeta 4 from 23. January 2008
EAC extraction logfile from 3. May 2009, 10:20
Zeromancer / Clone Your Lover
Used drive : PLEXTOR DVDR PX-820A Adapter: 0 ID: 1
Read mode : Secure
Utilize accurate stream : Yes
Defeat audio cache : Yes
Make use of C2 pointers : No
Read offset correction : 48
Overread into Lead-In and Lead-Out : No
Fill up missing offset samples with silence : Yes
Delete leading and trailing silent blocks : No
Null samples used in CRC calculations : Yes
Used interface : Native Win32 interface for Win NT & 2000
Gap handling : Appended to previous track
Used output format : User Defined Encoder
Selected bitrate : 128 kBit/s
Quality : High
Add ID3 tag : No
Command line compressor : C:\Program Files\Exact Audio Copy\Flac\flac.exe
Additional command line options : -8 -V -T "ARTIST=%a" -T "TITLE=%t" -T "ALBUM=%g" -T "DATE=%y" -T "TRACKNUMBER=%n" -T "GENRE=%m" -T "COMMENT=EAC FLAC -8" %s
TOC of the extracted CD
Track | Start | Length | Start sector | End sector
---------------------------------------------------------
1 | 0:00.00 | 3:50.17 | 0 | 17266
2 | 3:50.17 | 3:59.33 | 17267 | 35224
3 | 7:49.50 | 3:32.15 | 35225 | 51139
4 | 11:21.65 | 3:16.17 | 51140 | 65856
5 | 14:38.07 | 3:55.23 | 65857 | 83504
6 | 18:33.30 | 4:10.12 | 83505 | 102266
7 | 22:43.42 | 3:27.63 | 102267 | 117854
8 | 26:11.30 | 3:53.10 | 117855 | 135339
9 | 30:04.40 | 3:25.15 | 135340 | 150729
10 | 33:29.55 | 3:58.35 | 150730 | 168614
Track 1
Filename D:\_extract\Zeromancer - Clone your lover (2000) (eac flac scans)\01 - Clone your Lover.wav
Pre-gap length 0:00:02.00
Peak level 100.0 %
Track quality 100.0 %
Test CRC 6B06C5F9
Copy CRC 6B06C5F9
Copy OK
Track 2
Filename D:\_extract\Zeromancer - Clone your lover (2000) (eac flac scans)\02 - Flirt [with me].wav
Peak level 100.0 %
Track quality 100.0 %
Test CRC E17B36BF
Copy CRC E17B36BF
Copy OK
Track 3
Filename D:\_extract\Zeromancer - Clone your lover (2000) (eac flac scans)\03 - Something for the Pain.wav
Peak level 100.0 %
Track quality 99.9 %
Test CRC 0E2624C6
Copy CRC 0E2624C6
Copy OK
Track 4
Filename D:\_extract\Zeromancer - Clone your lover (2000) (eac flac scans)\04 - Split Seconds.wav
Peak level 100.0 %
Track quality 99.9 %
Test CRC 34C7DF42
Copy CRC 34C7DF42
Copy OK
Track 5
Filename D:\_extract\Zeromancer - Clone your lover (2000) (eac flac scans)\05 - Fade to Black.wav
Peak level 100.0 %
Track quality 100.0 %
Test CRC DF53F8EF
Copy CRC DF53F8EF
Copy OK
Track 6
Filename D:\_extract\Zeromancer - Clone your lover (2000) (eac flac scans)\06 - God bless the Models.wav
Peak level 100.0 %
Track quality 100.0 %
Test CRC 372DA80B
Copy CRC 372DA80B
Copy OK
Track 7
Filename D:\_extract\Zeromancer - Clone your lover (2000) (eac flac scans)\07 - Opelwerk.wav
Peak level 100.0 %
Track quality 100.0 %
Test CRC 0F00EB7D
Copy CRC 0F00EB7D
Copy OK
Track 8
Filename D:\_extract\Zeromancer - Clone your lover (2000) (eac flac scans)\08 - Flagellation.wav
Peak level 100.0 %
Track quality 100.0 %
Test CRC 8071291B
Copy CRC 8071291B
Copy OK
Track 9
Filename D:\_extract\Zeromancer - Clone your lover (2000) (eac flac scans)\09 - Die of a broken Heart.wav
Peak level 100.0 %
Track quality 99.9 %
Test CRC 72D350F8
Copy CRC 72D350F8
Copy OK
Track 10
Filename D:\_extract\Zeromancer - Clone your lover (2000) (eac flac scans)\10 - House of Cards.wav
Peak level 100.0 %
Track quality 100.0 %
Test CRC 0054F7A4
Copy CRC 0054F7A4
Copy OK
No errors occurred
End of status report
REM GENRE Other
REM DATE 2000
REM DISCID 7008C80A
REM COMMENT "ExactAudioCopy v0.99pb4"
PERFORMER "Zeromancer"
TITLE "Clone Your Lover"
FILE "01 - Clone your Lover.wav" WAVE
TRACK 01 AUDIO
TITLE "Clone your Lover"
PERFORMER "Zeromancer"
INDEX 01 00:00:00
FILE "02 - Flirt [with me].wav" WAVE
TRACK 02 AUDIO
TITLE "Flirt [with me]"
PERFORMER "Zeromancer"
INDEX 01 00:00:00
FILE "03 - Something for the Pain.wav" WAVE
TRACK 03 AUDIO
TITLE "Something for the Pain"
PERFORMER "Zeromancer"
INDEX 01 00:00:00
FILE "04 - Split Seconds.wav" WAVE
TRACK 04 AUDIO
TITLE "Split Seconds"
PERFORMER "Zeromancer"
INDEX 01 00:00:00
FILE "05 - Fade to Black.wav" WAVE
TRACK 05 AUDIO
TITLE "Fade to Black"
PERFORMER "Zeromancer"
INDEX 01 00:00:00
FILE "06 - God bless the Models.wav" WAVE
TRACK 06 AUDIO
TITLE "God bless the Models"
PERFORMER "Zeromancer"
INDEX 01 00:00:00
FILE "07 - Opelwerk.wav" WAVE
TRACK 07 AUDIO
TITLE "Opelwerk"
PERFORMER "Zeromancer"
INDEX 01 00:00:00
FILE "08 - Flagellation.wav" WAVE
TRACK 08 AUDIO
TITLE "Flagellation"
PERFORMER "Zeromancer"
INDEX 01 00:00:00
FILE "09 - Die of a broken Heart.wav" WAVE
TRACK 09 AUDIO
TITLE "Die of a broken Heart"
PERFORMER "Zeromancer"
INDEX 01 00:00:00
FILE "10 - House of Cards.wav" WAVE
TRACK 10 AUDIO
TITLE "House of Cards"
PERFORMER "Zeromancer"
INDEX 01 00:00:00
Правила, инструкции, FAQ!!!
Торрент  Добавлен [26 мар 2019, 21:05] Скачать торрент Магнет ссылка
Скачать торрент
[ Размер 18 КБ / Просмотров 6 ]

Статус
Проверен 
 
Размер  408.27 МБ
Приватный: Нет (DHT включён)
.torrent скачан  0
 


     Отправить личное сообщение
   
Страница 1 из 1
Показать сообщения за:  Поле сортировки  
Начать новую тему Ответить на тему


Сейчас этот форум просматривают: нет зарегистрированных пользователей и гости: 0


Вы не можете начинать темы
Вы не можете отвечать на сообщения
Вы не можете редактировать свои сообщения
Вы не можете удалять свои сообщения
Вы не можете добавлять вложения

Перейти:  
cron