Начать новую тему Ответить на тему
Статистика раздачи
Размер: 564.96 МБ | Добавлен: 26 июн 2020, 17:05 | Скачали: 0
Сидеров: 0  [0 байт/сек]    Личеров: 0  [0 байт/сек]
Пред. тема | След. тема 

Автор
Сообщение

СообщениеДобавлено: 26 июн 2020, 17:05 

Ответить с цитатой 

Various Artists / Future Sounds Of Moscow Part 1 (Second Edition)
Жанр: Industrial Rock, EBM, Ambient, Gothic, Noise
Носитель: CDR (Master CD)
Страна-производитель диска (релиза): Russia
Год издания: 1998 (Reissue 2001)
Издатель (лейбл): Sound Age/Future Sounds Promo Group
Аудиокодек: FLAC (*.flac)
Тип рипа: image+.cue
Битрейт аудио: lossless
Продолжительность: 01:13:08
Источник (релизер): Thrillazzz
Наличие сканов в содержимом раздачи: да
Треклист:
01 Танцы На Воле (TNV) — Телевизионный Снег
02 D.S.M. — Set Up
03 Crunch — Help Me Feel You
04 Виды Рыб (Species Of Fishes) — Yamal (Part 2)
05 Boog Shock — Шок
06 Fixed Chaos — Turbocoma
07 TNT Art — Rage
08 Ольга Инбер И Некто Уровень Черного — Добрый День, Латвия!
09 Собаки Табака — Плазма
10 M.C.D.EAD — Infant Sorrow
11 Crocodile T.X. — C.T.X.
12 Zima 23 feat. Nick Orsa — Catapult
13 Pinchers — To Get Nothing
14 Neutral — Malice In Wounderland
15 Inquisitorum — Мегамозг
16 Zoied — Zoied
Код:
Exact Audio Copy V1.1 from 23. June 2015
Отчёт EAC об извлечении, выполненном 23. ноября 2015, 22:50
- / VA - Future Sounds of Moscow - Part 1 Second Edition
Дисковод: ASUS    BW-12B1ST   Adapter: 1  ID: 1
Режим чтения                 : Достоверность
Использование точного потока : Да
Отключение кэша аудио        : Да
Использование указателей C2  : Нет
Коррекция смещения при чтении                     : 6
Способность читать области Lead-in и Lead-out     : Нет
Заполнение пропущенных сэмплов тишиной            : Да
Удаление блоков с тишиной в начале и конце        : Нет
При вычислениях CRC использовались нулевые сэмплы : Да
Интерфейс                                         : Встроенный Win32-интерфейс для Win NT/2000
Выходной формат          : Пользовательский кодировщик
Выбранный битрейт        : 1024 kBit/s
Качество                 : Высокий
Добавление ID3-тега      : Нет
Утилита сжатия           : C:\Program Files (x86)\Exact Audio Copy\FLAC\FLAC.EXE
Дополнительные параметры : -8 -V -T "ARTIST=%artist%" -T "TITLE=%title%" -T "ALBUM=%albumtitle%" -T "DATE=%year%" -T "TRACKNUMBER=%tracknr%" -T "GENRE=%genre%" -T "COMMENT=%comment%" -T "BAND=%albuminterpret%" -T "ALBUMARTIST=%albuminterpret%" -T "COMPOSER=%composer%" %haslyrics%--tag-from-file=LYRICS="%lyricsfile%"%haslyrics% -T "DISCNUMBER=%cdnumber%" -T "TOTALDISCS=%totalcds%" -T "TOTALTRACKS=%numtracks%" %hascover%--picture="%coverfile%"%hascover% %source% -o %dest%
TOC извлечённого CD
     Трек |   Старт  | Длительность | Начальный сектор | Конечный сектор
    ---------------------------------------------------------------------
       1  |  0:00.00 |    5:27.47   |           0      |      24571
       2  |  5:27.47 |    3:41.03   |       24572      |      41149
       3  |  9:08.50 |    5:51.39   |       41150      |      67513
       4  | 15:00.14 |    4:23.23   |       67514      |      87261
       5  | 19:23.37 |    3:15.53   |       87262      |     101939
       6  | 22:39.15 |    5:13.01   |      101940      |     125415
       7  | 27:52.16 |    4:10.25   |      125416      |     144190
       8  | 32:02.41 |    5:41.36   |      144191      |     169801
       9  | 37:44.02 |    5:41.51   |      169802      |     195427
      10  | 43:25.53 |    3:55.53   |      195428      |     213105
      11  | 47:21.31 |    4:27.23   |      213106      |     233153
      12  | 51:48.54 |    2:57.48   |      233154      |     246476
      13  | 54:46.27 |    2:51.60   |      246477      |     259361
      14  | 57:38.12 |    5:47.69   |      259362      |     285455
      15  | 63:26.06 |    4:38.74   |      285456      |     306379
      16  | 68:05.05 |    5:01.51   |      306380      |     329005
Характеристики диапазона извлечения и сообщения об ошибках
Выбранный диапазон
     Имя файла E:\FSOM part 1\flac\VA - Future Sounds of Moscow - Part 1 Second Edition.wav
     Пиковый уровень 100.0 %
     Скорость извлечения 9.4 X
     Качество диапазона 99.9 %
     CRC копии 5AD741E0
     Копирование... OK
Ошибок не произошло
Конец отчёта
---- CUETools DB Plugin V2.1.6
[CTDB TOCID: 3L9Vp0aLkLUEHMKoxc9o62pnc8I-] found
Submit result: already submitted
Track | CTDB Status
  1   | (1/1) Accurately ripped
  2   | (1/1) Accurately ripped
  3   | (1/1) Accurately ripped
  4   | (1/1) Accurately ripped
  5   | (1/1) Accurately ripped
  6   | (1/1) Accurately ripped
  7   | (1/1) Accurately ripped
  8   | (1/1) Accurately ripped
  9   | (1/1) Accurately ripped
 10   | (1/1) Accurately ripped
 11   | (1/1) Accurately ripped
 12   | (1/1) Accurately ripped
 13   | (1/1) Accurately ripped
 14   | (1/1) Accurately ripped
 15   | (1/1) Accurately ripped
 16   | (1/1) Accurately ripped
==== Контрольная сумма отчёта 88D1014DDCDE03A72ECCB65B56D36D1A82B5E3D0C7DBFFD210039F918152B387 ====
Код:
Lossless Audio Checker 1.9.1 logfile from Monday 23 November 2015 10:54:23 PM
File:   E:\FSOM part 1\flac\VA - Future Sounds of Moscow - Part 1 Second Edition.flac
Result: LOSSLESS
Files checked: 1 | Lossless: 1 | Cutoff: 0 | Error: 0 | Elapsed time: 00:01:02.108
Future Sounds Of Moscow — культовая серия российских индустриальных сборников состоящая из трех частей: Part 1 — 1998, Part 2 — 2000 и Part 3 — 2002, официально выпускавшихся только на кассетах, на лейбле Sound Age/Future Sounds Promo Group, и являющаяся на сегодняшний день 100% раритетом!
Данный рип сделан с мастер-СD. В таком качестве этот релиз выложен в сети впервые!
Данная компиляция демонстрирует все самое лучшие из московской около индустриальной сцены образца 1995-1998 года. Представленные здесь коллективы достаточно разнообразны по жанру - от ebm и industrial metal, до experimental, noise и даже gothic rock. Некоторые из них уже давным давно распались, кто-то играет уже совсем иную музыку, а кто-то до сих пор верен однажды выбранному пути, выступает и выпускает альбомы.
Рецензия от журнала Fuzz:
Чем же нас порадовали мрачные московские проекты – уж не грохотом ли кровельного железа, звоном пружин и гидравлических станков? Совсем нет. К чему эти древности? Ведь мы говорим о звуках будущего. Смело смотрит в прошлое лишь шумовой оркестр INQUSITORUM. Это настоящий прото-рок и квази-поп. Кстати, на первой части этой компиляции, помимо блистательных INQUSITORUM, присутствуют еще 15 проектов. Вы не заметили? Но так оно и есть! Да, не с первого раза я оценил загадочный трек электронщиков ВИДЫ РЫБ. Что они тут делают? Среди злобных гитар и треска драм-машин их гудящий дарк-эмбиент звучит удивительно пророчески. Сборник открывает довольно известная группа из города Иваново ТАНЦЫ НА ВОЛЕ. Любители электро-попа и EBM, они создают забавную прелюдию к дальнейшему погружению в дебри стиля, “условно называемого индастриал“. Все коллективы перечислять бессмысленно, особенно те, чьим основным фетишем стал прямой ритм и отрывистое, сухое, как лай немецкой овчарки, звучание гитары (см. KMFDM, OOMPH!, CLAWFINGER). На второй стороне кассеты приятная неожиданность - СОБАКИ ТАБАКА. Этот проект запомнился мне еще давним своим кавером на DEPECHE MODE. На FSOM их звучание более традиционно, но правильный минималистичный подход придает музыке особый колорит. Также из общей массы можно выделить проекты ZIMA 23, TNT ART и любимчиков готик-аудитории NEUTRAL.
Правила, инструкции, FAQ!!!
Торрент  Добавлен [26 июн 2020, 17:05] Скачать торрент Магнет ссылка
Скачать торрент
[ Размер 11.88 КБ / Просмотров 3 ]

Статус
Проверен 
 
Размер  564.96 МБ
Приватный: Нет (DHT включён)
.torrent скачан  0
 


     Отправить личное сообщение
   
Страница 1 из 1
Показать сообщения за:  Поле сортировки  
Начать новую тему Ответить на тему


Сейчас этот форум просматривают: нет зарегистрированных пользователей и гости: 0


Вы не можете начинать темы
Вы не можете отвечать на сообщения
Вы не можете редактировать свои сообщения
Вы не можете удалять свои сообщения
Вы не можете добавлять вложения

Перейти:  
cron