Начать новую тему Ответить на тему
Статистика раздачи
Размер: 303.19 МБ | Добавлен: 26 июн 2020, 17:01 | Скачали: 0
Сидеров: 0  [0 байт/сек]    Личеров: 0  [0 байт/сек]
Пред. тема | След. тема 

Автор
Сообщение

СообщениеДобавлено: 26 июн 2020, 17:01 

Ответить с цитатой 

Dexy Corp / Fragmentation
Жанр: Industrial, Rock
Носитель: CD
Страна-производитель диска (релиза): Germany
Год издания: 2009
Издатель (лейбл): Black Rain
Номер по каталогу: BR 061
Страна исполнителя (группы): France
Аудиокодек: FLAC (*.flac)
Тип рипа: tracks+.cue
Битрейт аудио: lossless
Продолжительность: 00:39:54
Источник (релизер): Собственный диск
Наличие сканов в содержимом раздачи: нет
Треклист:
1 Overlord 3:50
2 Proselytes 3:18
3 A Needle In Each Arm 2:29
4 Anhédonie 4:19
5 Beat Me 3:36
6 Faceless 4:18
7 Dark Bliss 2:19
8 Lie Is Life 2:39
9 Incandecent World 3:57
10 Ghost Connection 3:14
11 Death Plastic Surgery 3:42
12 Ghost Track 1:51
Код:
Exact Audio Copy V1.0 beta 3 from 29. August 2011
EAC extraction logfile from 8. February 2012, 19:44
Dexy Corp_ / Fragmentation
Used drive  : SONY    CD-RW  CRX320EE   Adapter: 0  ID: 0
Read mode               : Secure
Utilize accurate stream : Yes
Defeat audio cache      : Yes
Make use of C2 pointers : No
Read offset correction                      : 6
Overread into Lead-In and Lead-Out          : No
Fill up missing offset samples with silence : Yes
Delete leading and trailing silent blocks   : No
Null samples used in CRC calculations       : Yes
Used interface                              : Native Win32 interface for Win NT & 2000
Gap handling                                : Appended to previous track
Used output format              : User Defined Encoder
Selected bitrate                : 1024 kBit/s
Quality                         : High
Add ID3 tag                     : No
Command line compressor         : C:\Users\Slugger\Exact Audio Copy\Flac\flac.exe
Additional command line options : -8 -V -T "ARTIST=%artist%" -T "TITLE=%title%" -T "ALBUM=%albumtitle%" -T "DATE=%year%" -T "TRACKNUMBER=%tracknr%" -T "GENRE=%genre%" -T "PERFORMER=%albuminterpret%" -T "COMPOSER=%composer%" %haslyrics%--tag-from-file=LYRICS="%lyricsfile%"%haslyrics% -T "ALBUMARTIST=%albumartist%" -T "DISCNUMBER=%cdnumber%" -T "TOTALDISCS=%totalcds%" -T "TOTALTRACKS=%numtracks%" -T "COMMENT=%comment%" %source% -o %dest%
TOC of the extracted CD
     Track |   Start  |  Length  | Start sector | End sector
    ---------------------------------------------------------
        1  |  0:00.00 |  3:51.17 |         0    |    17341
        2  |  3:51.17 |  3:14.60 |     17342    |    31951
        3  |  7:06.02 |  2:29.50 |     31952    |    43176
        4  |  9:35.52 |  4:16.02 |     43177    |    62378
        5  | 13:51.54 |  3:34.63 |     62379    |    78491
        6  | 17:26.42 |  4:17.50 |     78492    |    97816
        7  | 21:44.17 |  2:18.19 |     97817    |   108185
        8  | 24:02.36 |  2:37.62 |    108186    |   120022
        9  | 26:40.23 |  3:57.50 |    120023    |   137847
       10  | 30:37.73 |  3:10.62 |    137848    |   152159
       11  | 33:48.60 |  4:13.00 |    152160    |   171134
       12  | 38:01.60 |  1:51.72 |    171135    |   179531
Track  1
     Filename E:\=what.cd=\[FLAC] Dexy Corp - Fragmentation (2009) {BR 061}\01 - overlord.wav
     Pre-gap length  0:00:02.00
     Peak level 95.5 %
     Extraction speed 1.6 X
     Track quality 99.9 %
     Test CRC C56C4E5C
     Copy CRC C56C4E5C
     Track not present in AccurateRip database
     Copy OK
Track  2
     Filename E:\=what.cd=\[FLAC] Dexy Corp - Fragmentation (2009) {BR 061}\02 - proselytes.wav
     Pre-gap length  0:00:02.00
     Peak level 98.8 %
     Extraction speed 2.0 X
     Track quality 100.0 %
     Test CRC C6F7433A
     Copy CRC C6F7433A
     Track not present in AccurateRip database
     Copy OK
Track  3
     Filename E:\=what.cd=\[FLAC] Dexy Corp - Fragmentation (2009) {BR 061}\03 - a needle in each arm.wav
     Pre-gap length  0:00:02.00
     Peak level 98.8 %
     Extraction speed 2.0 X
     Track quality 100.0 %
     Test CRC EC931C4C
     Copy CRC EC931C4C
     Track not present in AccurateRip database
     Copy OK
Track  4
     Filename E:\=what.cd=\[FLAC] Dexy Corp - Fragmentation (2009) {BR 061}\04 - anhédonie.wav
     Pre-gap length  0:00:02.00
     Peak level 97.2 %
     Extraction speed 2.4 X
     Track quality 100.0 %
     Test CRC 411CA248
     Copy CRC 411CA248
     Track not present in AccurateRip database
     Copy OK
Track  5
     Filename E:\=what.cd=\[FLAC] Dexy Corp - Fragmentation (2009) {BR 061}\05 - beat me.wav
     Pre-gap length  0:00:02.00
     Peak level 98.8 %
     Extraction speed 2.5 X
     Track quality 100.0 %
     Test CRC 8D32F88B
     Copy CRC 8D32F88B
     Track not present in AccurateRip database
     Copy OK
Track  6
     Filename E:\=what.cd=\[FLAC] Dexy Corp - Fragmentation (2009) {BR 061}\06 - faceless.wav
     Pre-gap length  0:00:02.00
     Peak level 72.7 %
     Extraction speed 2.7 X
     Track quality 100.0 %
     Test CRC B4E0AF23
     Copy CRC B4E0AF23
     Track not present in AccurateRip database
     Copy OK
Track  7
     Filename E:\=what.cd=\[FLAC] Dexy Corp - Fragmentation (2009) {BR 061}\07 - dark bliss.wav
     Pre-gap length  0:00:02.00
     Peak level 98.8 %
     Extraction speed 2.6 X
     Track quality 100.0 %
     Test CRC 5D263918
     Copy CRC 5D263918
     Track not present in AccurateRip database
     Copy OK
Track  8
     Filename E:\=what.cd=\[FLAC] Dexy Corp - Fragmentation (2009) {BR 061}\08 - lie is life.wav
     Pre-gap length  0:00:02.00
     Peak level 90.2 %
     Extraction speed 2.7 X
     Track quality 100.0 %
     Test CRC D7CA3AE8
     Copy CRC D7CA3AE8
     Track not present in AccurateRip database
     Copy OK
Track  9
     Filename E:\=what.cd=\[FLAC] Dexy Corp - Fragmentation (2009) {BR 061}\09 - incandescent world.wav
     Pre-gap length  0:00:02.00
     Peak level 92.2 %
     Extraction speed 3.0 X
     Track quality 100.0 %
     Test CRC 7EA1C66E
     Copy CRC 7EA1C66E
     Track not present in AccurateRip database
     Copy OK
Track 10
     Filename E:\=what.cd=\[FLAC] Dexy Corp - Fragmentation (2009) {BR 061}\10 - ghost connection.wav
     Pre-gap length  0:00:02.00
     Peak level 98.8 %
     Extraction speed 3.0 X
     Track quality 100.0 %
     Test CRC 45FE74EE
     Copy CRC 45FE74EE
     Track not present in AccurateRip database
     Copy OK
Track 11
     Filename E:\=what.cd=\[FLAC] Dexy Corp - Fragmentation (2009) {BR 061}\11 - death plastic surgery.wav
     Pre-gap length  0:00:02.00
     Peak level 98.8 %
     Extraction speed 3.2 X
     Track quality 100.0 %
     Test CRC 7564999C
     Copy CRC 7564999C
     Track not present in AccurateRip database
     Copy OK
Track 12
     Filename E:\=what.cd=\[FLAC] Dexy Corp - Fragmentation (2009) {BR 061}\12 - ghost track.wav
     Pre-gap length  0:01:00.00
     Peak level 64.5 %
     Extraction speed 2.9 X
     Track quality 100.0 %
     Test CRC FAF0F201
     Copy CRC FAF0F201
     Track not present in AccurateRip database
     Copy OK
None of the tracks are present in the AccurateRip database
No errors occurred
End of status report
---- CUETools DB Plugin V2.1.3
[CTDB TOCID: FIbXV28oMkXp_f1RXjngZ9_MDqY-] disk not present in database, Submit result: FIbXV28oMkXp_f1RXjngZ9_MDqY- has been uploaded
==== Log checksum 924EFB5E44AC9AB5DD49561228D047843EB5CA26F5A33EF50C780BABEA05BF40 ====
Код:
REM GENRE Industrial
REM DATE 2008
REM DISCID 8F09590C
REM COMMENT "ExactAudioCopy v1.0b3"
PERFORMER "Dexy Corp_"
TITLE "Fragmentation"
FILE "01 - overlord.wav" WAVE
  TRACK 01 AUDIO
    TITLE "overlord"
    PERFORMER "Dexy Corp_"
    INDEX 01 00:00:00
  TRACK 02 AUDIO
    TITLE "proselytes"
    PERFORMER "Dexy Corp_"
    INDEX 00 03:49:17
FILE "02 - proselytes.wav" WAVE
    INDEX 01 00:00:00
  TRACK 03 AUDIO
    TITLE "a needle in each arm"
    PERFORMER "Dexy Corp_"
    INDEX 00 03:12:60
FILE "03 - a needle in each arm.wav" WAVE
    INDEX 01 00:00:00
  TRACK 04 AUDIO
    TITLE "anhedonie"
    PERFORMER "Dexy Corp_"
    INDEX 00 02:27:50
FILE "04 - anhedonie.wav" WAVE
    INDEX 01 00:00:00
  TRACK 05 AUDIO
    TITLE "beat me"
    PERFORMER "Dexy Corp_"
    INDEX 00 04:14:02
FILE "05 - beat me.wav" WAVE
    INDEX 01 00:00:00
  TRACK 06 AUDIO
    TITLE "faceless"
    PERFORMER "Dexy Corp_"
    INDEX 00 03:32:63
FILE "06 - faceless.wav" WAVE
    INDEX 01 00:00:00
  TRACK 07 AUDIO
    TITLE "dark bliss"
    PERFORMER "Dexy Corp_"
    INDEX 00 04:15:50
FILE "07 - dark bliss.wav" WAVE
    INDEX 01 00:00:00
  TRACK 08 AUDIO
    TITLE "lie is life"
    PERFORMER "Dexy Corp_"
    INDEX 00 02:16:19
FILE "08 - lie is life.wav" WAVE
    INDEX 01 00:00:00
  TRACK 09 AUDIO
    TITLE "incandescent world"
    PERFORMER "Dexy Corp_"
    INDEX 00 02:35:62
FILE "09 - incandescent world.wav" WAVE
    INDEX 01 00:00:00
  TRACK 10 AUDIO
    TITLE "ghost connection"
    PERFORMER "Dexy Corp_"
    INDEX 00 03:55:50
FILE "10 - ghost connection.wav" WAVE
    INDEX 01 00:00:00
  TRACK 11 AUDIO
    TITLE "death plastic surgery"
    PERFORMER "Dexy Corp_"
    INDEX 00 03:08:62
FILE "11 - death plastic surgery.wav" WAVE
    INDEX 01 00:00:00
  TRACK 12 AUDIO
    TITLE "ghost track"
    PERFORMER "Dexy Corp_"
    INDEX 00 03:13:00
FILE "12 - ghost track.wav" WAVE
    INDEX 01 00:00:00
Код:
-----------------------
DON'T MODIFY THIS FILE
-----------------------
PERFORMER: auCDtect Task Manager, ver. 1.6.0 RC1 build 1.6.0.1
Copyright (c) 2008-2010 y-soft. All rights reserved
[url=http://y-soft.org]http://y-soft.org[/url]
ANALYZER: auCDtect: CD records authenticity detector, version 0.8.2
Copyright (c) 2004 Oleg Berngardt. All rights reserved.
Copyright (c) 2004 Alexander Djourik. All rights reserved.
FILE: 12 - ghost track.flac
  Size: 16480727 Hash: 8BBADB52F402919919E54183284D11FF Accuracy: -m0
  Conclusion: CDDA 100%
  Signature: EF21E1D43D274268AE1AC757E58257F940C5C4FA
FILE: 11 - death plastic surgery.flac
  Size: 27324643 Hash: 7F2C9EB3AC06C4F1D214CACF37D9E383 Accuracy: -m0
  Conclusion: CDDA 100%
  Signature: 64BFC61E9ABF4B4F2573E93A315AF4233598F089
FILE: 10 - ghost connection.flac
  Size: 25162569 Hash: FF3BAD9DD4E53C7B09E44498BF013F74 Accuracy: -m0
  Conclusion: CDDA 100%
  Signature: 910E56CDD33467BC330F2C7D754F149156928E68
FILE: 09 - incandescent world.flac
  Size: 31706935 Hash: 1B396E05BB12B3930F10BEE11D1A2050 Accuracy: -m0
  Conclusion: CDDA 100%
  Signature: 874B5D250C0517C05B4ADC8FC9997E5F64DC74F4
FILE: 08 - lie is life.flac
  Size: 21039719 Hash: 4CD03A02148A5A20865A21D74948EE9C Accuracy: -m0
  Conclusion: CDDA 100%
  Signature: B3EEC9804B61AE3F6BF1B3D4A9DB17F977FD6465
FILE: 07 - dark bliss.flac
  Size: 16386714 Hash: EA180A2670A22D115A39964807738853 Accuracy: -m0
  Conclusion: MPEG 95%
  Signature: 0954BE9C584E41D8A1AD3D49B814D7EE9ED5B30C
FILE: 06 - faceless.flac
  Size: 34379911 Hash: D2B990D820CFF2A7460A5156F629A8F3 Accuracy: -m0
  Conclusion: CDDA 100%
  Signature: 8F08457B360BA3254726F3C8085EC81BFF8C9E04
FILE: 05 - beat me.flac
  Size: 29729789 Hash: A139C90B0A2D6DE532C031ABF6714787 Accuracy: -m0
  Conclusion: CDDA 100%
  Signature: 01F3181ED530BB9014102BD2C70D67DAAB03D177
FILE: 03 - a needle in each arm.flac
  Size: 21291353 Hash: C1249D9912861BB4046ECAAFAB7A825B Accuracy: -m0
  Conclusion: CDDA 100%
  Signature: A6F19E6C31FC42A40CBA4028B8CE3C03F93650F1
FILE: 02 - proselytes.flac
  Size: 27349524 Hash: 30F5A682EB232738A3DE858F1B8CB48A Accuracy: -m0
  Conclusion: CDDA 100%
  Signature: E571EA9D9C5B0885C9706D52738149036D57711D
FILE: 01 - overlord.flac
  Size: 31303445 Hash: 09CB9103BC3CCD32994B623BD340F1ED Accuracy: -m0
  Conclusion: CDDA 100%
  Signature: 62BC08B349B4AFEEC69DC3D0F106A26C6306FBF9
4 трек:
7 трек:
Правила, инструкции, FAQ!!!
Торрент  Добавлен [26 июн 2020, 17:01] Скачать торрент Магнет ссылка
Скачать торрент
[ Размер 13.38 КБ / Просмотров 3 ]

Статус
Проверен 
 
Размер  303.19 МБ
Приватный: Нет (DHT включён)
.torrent скачан  0
 


     Отправить личное сообщение
   
Страница 1 из 1
Показать сообщения за:  Поле сортировки  
Начать новую тему Ответить на тему


Сейчас этот форум просматривают: нет зарегистрированных пользователей и гости: 0


Вы не можете начинать темы
Вы не можете отвечать на сообщения
Вы не можете редактировать свои сообщения
Вы не можете удалять свои сообщения
Вы не можете добавлять вложения

Перейти:  
cron