Начать новую тему Ответить на тему
Статистика раздачи
Размер: 484.91 МБ | Добавлен: 26 июн 2020, 17:39 | Скачали: 0
Сидеров: 0  [0 байт/сек]    Личеров: 0  [0 байт/сек]
Пред. тема | След. тема 

Автор
Сообщение

СообщениеДобавлено: 26 июн 2020, 17:39 

Ответить с цитатой 

Project Pitchfork - The Early Years: '89-'93
Жанр: Industrial
Год выпуска диска: 1996
Производитель диска: Germany
Аудио кодек: FLAC
Тип рипа: tracks
Битрейт аудио: lossless
Трэклист:
01 K.N.K.A. (Climax Version) (4:16)
02 Precious New World (4:42)
03 Lam-Bras (5:19)
04 Go Further (5:20)
05 Conjure (6:17)
06 The Abeyance (5:32)
07 Song Of The Winds (5:22)
08 Entity (7:10)
09 The Island (5:19)
10 Souls (6:30)
11 Bodies (5:05)
12 Corps D'Amour (4:22)
13 Self-Knowledge (4:36)
Доп. информация:
Код:
Exact Audio Copy V0.99 prebeta 4 from 23. January 2008
EAC extraction logfile from 7. November 2008, 10:22
Project Pitchfork / The Early Years (89-93)
Used drive  : TSSTcorpDVD+-RW TS-H653B   Adapter: 1  ID: 0
Read mode               : Secure
Utilize accurate stream : Yes
Defeat audio cache      : Yes
Make use of C2 pointers : No
Read offset correction                      : 6
Overread into Lead-In and Lead-Out          : No
Fill up missing offset samples with silence : Yes
Delete leading and trailing silent blocks   : No
Null samples used in CRC calculations       : Yes
Used interface                              : Installed external ASPI interface
Gap handling                                : Appended to previous track
Used output format              : User Defined Encoder
Selected bitrate                : 192 kBit/s
Quality                         : High
Add ID3 tag                     : No
Command line compressor         : C:\Program Files\Exact Audio Copy\Flac\flac.exe
Additional command line options : -V -8 -T "artist=%a" -T "title=%t" -T "album=%g" -T "date=%y" -T "tracknumber=%n" -T "genre=%m" %s
TOC of the extracted CD
     Track |   Start  |  Length  | Start sector | End sector
    ---------------------------------------------------------
        1  |  0:00.50 |  4:16.55 |        50    |    19304
        2  |  4:17.30 |  4:42.62 |     19305    |    40516
        3  |  9:00.17 |  5:19.30 |     40517    |    64471
        4  | 14:19.47 |  5:20.25 |     64472    |    88496
        5  | 19:39.72 |  6:17.23 |     88497    |   116794
        6  | 25:57.20 |  5:32.17 |    116795    |   141711
        7  | 31:29.37 |  5:22.00 |    141712    |   165861
        8  | 36:51.37 |  7:10.43 |    165862    |   198154
        9  | 44:02.05 |  5:19.60 |    198155    |   222139
       10  | 49:21.65 |  6:30.25 |    222140    |   251414
       11  | 55:52.15 |  5:05.72 |    251415    |   274361
       12  | 60:58.12 |  4:22.23 |    274362    |   294034
       13  | 65:20.35 |  4:36.62 |    294035    |   314796
Track  1
     Filename F:\Project Pitchfork (1996) - The Early Years (89-93)\01 Project Pitchfork - K.N.K.A. (Klimax Version).wav
     Pre-gap length  0:00:02.66
     Peak level 100.0 %
     Track quality 100.0 %
     Test CRC 106AF731
     Copy CRC 106AF731
     Accurately ripped (confidence 9)  [0EAF7129]
     Copy OK
Track  2
     Filename F:\Project Pitchfork (1996) - The Early Years (89-93)\02 Project Pitchfork - Precious New World.wav
     Pre-gap length  0:00:01.66
     Peak level 100.0 %
     Track quality 100.0 %
     Test CRC 073F45C8
     Copy CRC 073F45C8
     Accurately ripped (confidence 9)  [3DF5D4F8]
     Copy OK
Track  3
     Filename F:\Project Pitchfork (1996) - The Early Years (89-93)\03 Project Pitchfork - Lam-'bras.wav
     Pre-gap length  0:00:01.66
     Peak level 100.0 %
     Track quality 100.0 %
     Test CRC 2EC88FF0
     Copy CRC 2EC88FF0
     Accurately ripped (confidence 9)  [647E4558]
     Copy OK
Track  4
     Filename F:\Project Pitchfork (1996) - The Early Years (89-93)\04 Project Pitchfork - Go Further.wav
     Pre-gap length  0:00:01.66
     Peak level 100.0 %
     Track quality 100.0 %
     Test CRC 4E5B6989
     Copy CRC 4E5B6989
     Accurately ripped (confidence 9)  [0D4CF124]
     Copy OK
Track  5
     Filename F:\Project Pitchfork (1996) - The Early Years (89-93)\05 Project Pitchfork - Conjure.wav
     Pre-gap length  0:00:01.66
     Peak level 100.0 %
     Track quality 100.0 %
     Test CRC E664827C
     Copy CRC E664827C
     Accurately ripped (confidence 9)  [89420435]
     Copy OK
Track  6
     Filename F:\Project Pitchfork (1996) - The Early Years (89-93)\06 Project Pitchfork - The Abeyance (Paralysed Mix).wav
     Pre-gap length  0:00:01.66
     Peak level 100.0 %
     Track quality 100.0 %
     Test CRC 95546E0F
     Copy CRC 95546E0F
     Accurately ripped (confidence 9)  [512CA987]
     Copy OK
Track  7
     Filename F:\Project Pitchfork (1996) - The Early Years (89-93)\07 Project Pitchfork - Song of the Wind.wav
     Pre-gap length  0:00:01.66
     Peak level 100.0 %
     Track quality 100.0 %
     Test CRC 95584160
     Copy CRC 95584160
     Accurately ripped (confidence 9)  [5FDB1A95]
     Copy OK
Track  8
     Filename F:\Project Pitchfork (1996) - The Early Years (89-93)\08 Project Pitchfork - Entity (The Rebirth of).wav
     Pre-gap length  0:00:01.66
     Peak level 100.0 %
     Track quality 100.0 %
     Test CRC FA764F10
     Copy CRC FA764F10
     Accurately ripped (confidence 9)  [5BE639CB]
     Copy OK
Track  9
     Filename F:\Project Pitchfork (1996) - The Early Years (89-93)\09 Project Pitchfork - The Island.wav
     Pre-gap length  0:00:01.66
     Peak level 100.0 %
     Track quality 99.9 %
     Test CRC F47BECEE
     Copy CRC F47BECEE
     Accurately ripped (confidence 9)  [BF2CF6DB]
     Copy OK
Track 10
     Filename F:\Project Pitchfork (1996) - The Early Years (89-93)\10 Project Pitchfork - Souls (Extended Version).wav
     Pre-gap length  0:00:01.66
     Peak level 100.0 %
     Track quality 100.0 %
     Test CRC 520E4914
     Copy CRC 520E4914
     Accurately ripped (confidence 9)  [69CC843E]
     Copy OK
Track 11
     Filename F:\Project Pitchfork (1996) - The Early Years (89-93)\11 Project Pitchfork - Bodies.wav
     Pre-gap length  0:00:01.66
     Peak level 100.0 %
     Track quality 100.0 %
     Test CRC 7FAB2038
     Copy CRC 7FAB2038
     Accurately ripped (confidence 7)  [8873A033]
     Copy OK
Track 12
     Filename F:\Project Pitchfork (1996) - The Early Years (89-93)\12 Project Pitchfork - Corps d'Amour.wav
     Pre-gap length  0:00:01.66
     Peak level 100.0 %
     Track quality 99.9 %
     Test CRC 609C7E34
     Copy CRC 609C7E34
     Accurately ripped (confidence 8)  [30B486AA]
     Copy OK
Track 13
     Filename F:\Project Pitchfork (1996) - The Early Years (89-93)\13 Project Pitchfork - Self-Knowledge.wav
     Pre-gap length  0:00:01.66
     Peak level 100.0 %
     Track quality 100.0 %
     Test CRC 1735A376
     Copy CRC 1735A376
     Accurately ripped (confidence 6)  [23C5AB7C]
     Copy OK
All tracks accurately ripped
No errors occurred
End of status report
Правила, инструкции, FAQ!!!
Торрент  Добавлен [26 июн 2020, 17:39] Скачать торрент Магнет ссылка
Скачать торрент
[ Размер 20.55 КБ / Просмотров 10 ]

Статус
Проверен 
 
Размер  484.91 МБ
Приватный: Нет (DHT включён)
.torrent скачан  0
 


     Отправить личное сообщение
   
Страница 1 из 1
Показать сообщения за:  Поле сортировки  
Начать новую тему Ответить на тему


Сейчас этот форум просматривают: нет зарегистрированных пользователей и гости: 0


Вы не можете начинать темы
Вы не можете отвечать на сообщения
Вы не можете редактировать свои сообщения
Вы не можете удалять свои сообщения
Вы не можете добавлять вложения

Перейти:  
cron