Начать новую тему Ответить на тему
Статистика раздачи
Размер: 448.68 МБ | Добавлен: 26 июн 2020, 17:47 | Скачали: 0
Сидеров: 0  [0 байт/сек]    Личеров: 0  [0 байт/сек]
Пред. тема | След. тема 

Автор
Сообщение

СообщениеДобавлено: 26 июн 2020, 17:47 

Ответить с цитатой 

Pain Station - Disjointed
Жанр: Industrial
Год выпуска диска: 1999
Производитель диска: US
Аудио кодек: FLAC
Тип рипа: image+.cue
Битрейт аудио: lossless
Продолжительность: 1:06:06
Трэклист:
1 Pain (4:18)
2 Anxiety (4:28)
3 T.O.S. (6:20)
4 Martyr (5:31)
5 Flatline (8:16)
6 Control (4:57)
7 Tourist (6:44)
8 Grovel (4:33)
9 Monster (7:10)
10 Solitude (5:05)
11 One Fine Day (4:36)
12 More Pain (3:15)
Доп. информация:
Label: COP International
Catalog#: COP CD043
Credits: Producer, Mixed By, Engineer, Mastered By - Tom Muschitz
Written-By - Scott Sturgis
Notes: Produced, Mixed, Engineered and Mastered at The Womb.
одна из ипостасей Scott'а Sturgis'а, который Converter
Exact Audio Copy V0.99 prebeta 4 from 23. January 2008
Отчёт EAC об извлечении, выполненном 24. июля 2008, 22:51
Pain Station / Disjointed
Дисковод: _NEC DVD_RW ND-3550A Adapter: 0 ID: 0
Режим чтения : Достоверность
Использование точного потока : Да
Отключение кэша аудио : Да
Использование указателей C2 : Нет
Коррекция смещения при чтении : 48
Способность читать области Lead-in и Lead-out : Нет
Заполнение пропущенных сэмплов тишиной : Да
Удаление блоков с тишиной в начале и конце : Нет
При вычислениях CRC использовались нулевые сэмплы : Да
Интерфейс : Установленный внешний ASPI-интерфейс
Выходной формат : Пользовательский кодировщик
Выбранный битрейт : 1024 kBit/s
Качество : Высокий
Добавление ID3-тэга : Нет
Утилита сжатия : D:\Programs\Tools\_Exact Audio Copy\FLAC\FLAC.EXE
Дополнительные параметры : -8 -V -T "ARTIST=%a" -T "TITLE=%g" -T "ALBUM=%g" -T "DATE=%y" -T "GENRE=%m" -T "COMMENT=%e" %s -o %d
TOC извлечённого CD
Трек | Старт | Длительность | Начальный сектор | Конечный сектор
---------------------------------------------------------------------
1 | 0:00.00 | 4:20.68 | 0 | 19567
2 | 4:20.68 | 4:26.50 | 19568 | 39567
3 | 8:47.43 | 6:22.20 | 39568 | 68237
4 | 15:09.63 | 5:37.53 | 68238 | 93565
5 | 20:47.41 | 8:21.12 | 93566 | 131152
6 | 29:08.53 | 5:01.37 | 131153 | 153764
7 | 34:10.15 | 6:52.46 | 153765 | 184710
8 | 41:02.61 | 4:38.03 | 184711 | 205563
9 | 45:40.64 | 7:13.21 | 205564 | 238059
10 | 52:54.10 | 5:08.29 | 238060 | 261188
11 | 58:02.39 | 4:41.13 | 261189 | 282276
12 | 62:43.52 | 3:22.56 | 282277 | 297482
Характеристики диапазона извлечения и сообщения об ошибках
Выбранный диапазон
Имя файла G:\Pain Station - Disjointed\Disjointed.wav
Пиковый уровень 100.0 %
Качество диапазона 100.0 %
CRC теста 07F0B3AE
CRC копии 07F0B3AE
Копирование... OK
Ошибок не произошло
AccurateRip: сводка
Трек 1 точное извлечение (доверие 1) [C296EBE0]
Трек 2 точное извлечение (доверие 1) [95DB2B0E]
Трек 3 точное извлечение (доверие 1) [560A5FCB]
Трек 4 точное извлечение (доверие 1) [F4471A31]
Трек 5 точное извлечение (доверие 1) [57F6C39A]
Трек 6 точное извлечение (доверие 1) [E18424C3]
Трек 7 точное извлечение (доверие 1) [567741C1]
Трек 8 точное извлечение (доверие 1) [C40CB80D]
Трек 9 точное извлечение (доверие 1) [E474FBE2]
Трек 10 точное извлечение (доверие 1) [A81C0D8C]
Трек 11 точное извлечение (доверие 1) [81F0340F]
Трек 12 точное извлечение (доверие 1) [02688A1A]
Все треки извлечены точно
Конец отчёта
на раздаче ВСЕГДА в нерабочее время (вечер, ночь, выходные), в остальное время как получится
Правила, инструкции, FAQ!!!
Торрент  Добавлен [26 июн 2020, 17:47] Скачать торрент Магнет ссылка
Скачать торрент
[ Размер 18.64 КБ / Просмотров 8 ]

Статус
Проверен 
 
Размер  448.68 МБ
Приватный: Нет (DHT включён)
.torrent скачан  0
 


     Отправить личное сообщение
   
Страница 1 из 1
Показать сообщения за:  Поле сортировки  
Начать новую тему Ответить на тему


Сейчас этот форум просматривают: нет зарегистрированных пользователей и гости: 0


Вы не можете начинать темы
Вы не можете отвечать на сообщения
Вы не можете редактировать свои сообщения
Вы не можете удалять свои сообщения
Вы не можете добавлять вложения

Перейти:  
cron