Начать новую тему Ответить на тему
Статистика раздачи
Размер: 439.18 МБ | Добавлен: 26 июн 2020, 17:42 | Скачали: 0
Сидеров: 0  [0 байт/сек]    Личеров: 0  [0 байт/сек]
Пред. тема | След. тема 

Автор
Сообщение

СообщениеДобавлено: 26 июн 2020, 17:42 

Ответить с цитатой 

Pain Station - Cold
Жанр: Industrial
Год выпуска диска: 1999
Производитель диска: US
Аудио кодек: FLAC
Тип рипа: image+.cue
Битрейт аудио: lossless
Продолжительность: 1:11:11
Трэклист:
1 Reflect (6:03)
2 Dead Inside (4:38)
3 Turning Point (6:04)
4 Braindead (5:37)
5 I Need You (7:26)
6 Dark Day (The Breakdown) (2:12)
7 Guinea Pig (7:26)
8 So Alive (5:53)
9 Aftermath (5:03)
10 Slaughterhouse (7:37)
11 Dark Day (Self-Destruct) (3:14)
12 Slaughterhouse [Slut] (4:27) Remix - Assemblage 23
13 Aftermath [Slobberknocker] (5:26) Remix - Converter
Доп. информация:
Label: COP International
Catalog#: COP CD051
Credits: Written-By, Performer, Producer - Scott Sturgis
одна из ипостасей Scott'а Sturgis'а, который Converter
Exact Audio Copy V0.99 prebeta 4 from 23. January 2008
Отчёт EAC об извлечении, выполненном 20. июля 2008, 23:32
Pain Station / Cold
Дисковод: _NEC DVD_RW ND-3550A Adapter: 0 ID: 0
Режим чтения : Достоверность
Использование точного потока : Да
Отключение кэша аудио : Да
Использование указателей C2 : Нет
Коррекция смещения при чтении : 48
Способность читать области Lead-in и Lead-out : Нет
Заполнение пропущенных сэмплов тишиной : Да
Удаление блоков с тишиной в начале и конце : Нет
При вычислениях CRC использовались нулевые сэмплы : Да
Интерфейс : Установленный внешний ASPI-интерфейс
Выходной формат : Пользовательский кодировщик
Выбранный битрейт : 1024 kBit/s
Качество : Высокий
Добавление ID3-тэга : Нет
Утилита сжатия : D:\Programs\Tools\_Exact Audio Copy\FLAC\FLAC.EXE
Дополнительные параметры : -8 -V -T "ARTIST=%a" -T "TITLE=%g" -T "ALBUM=%g" -T "DATE=%y" -T "GENRE=%m" -T "COMMENT=%e" %s -o %d
TOC извлечённого CD
Трек | Старт | Длительность | Начальный сектор | Конечный сектор
---------------------------------------------------------------------
1 | 0:00.00 | 6:03.00 | 0 | 27224
2 | 6:03.00 | 4:38.00 | 27225 | 48074
3 | 10:41.00 | 6:04.25 | 48075 | 75399
4 | 16:45.25 | 5:37.50 | 75400 | 100724
5 | 22:23.00 | 7:26.25 | 100725 | 134199
6 | 29:49.25 | 2:12.00 | 134200 | 144099
7 | 32:01.25 | 7:26.50 | 144100 | 177599
8 | 39:28.00 | 5:53.50 | 177600 | 204124
9 | 45:21.50 | 5:03.25 | 204125 | 226874
10 | 50:25.00 | 7:37.50 | 226875 | 261199
11 | 58:02.50 | 3:14.25 | 261200 | 275774
12 | 61:17.00 | 4:27.25 | 275775 | 295824
13 | 65:44.25 | 5:26.33 | 295825 | 320307
Характеристики диапазона извлечения и сообщения об ошибках
Выбранный диапазон
Имя файла G:\Pain Station - Cold\Cold.wav
Пиковый уровень 99.4 %
Качество диапазона 100.0 %
CRC теста 01B429B6
CRC копии 01B429B6
Копирование... OK
Ошибок не произошло
AccurateRip: сводка
Трек 1 точное извлечение (доверие 2) [E99252D4]
Трек 2 точное извлечение (доверие 2) [308DC340]
Трек 3 точное извлечение (доверие 2) [E5AFA5F3]
Трек 4 точное извлечение (доверие 2) [9B0E1455]
Трек 5 точное извлечение (доверие 2) [413B1D82]
Трек 6 точное извлечение (доверие 2) [D15C5190]
Трек 7 точное извлечение (доверие 2) [6137F8E7]
Трек 8 точное извлечение (доверие 2) [1BF6F638]
Трек 9 точное извлечение (доверие 2) [21F363E1]
Трек 10 точное извлечение (доверие 2) [C6DEAA08]
Трек 11 точное извлечение (доверие 2) [A62465C4]
Трек 12 точное извлечение (доверие 2) [7C43C458]
Трек 13 точное извлечение (доверие 2) [631E41A6]
Все треки извлечены точно
Конец отчёта
на раздаче ВСЕГДА в нерабочее время (вечер, ночь, выходные), в остальное время как получится
Правила, инструкции, FAQ!!!
Торрент  Добавлен [26 июн 2020, 17:42] Скачать торрент Магнет ссылка
Скачать торрент
[ Размер 18.11 КБ / Просмотров 12 ]

Статус
Проверен 
 
Размер  439.18 МБ
Приватный: Нет (DHT включён)
.torrent скачан  0
 


     Отправить личное сообщение
   
Страница 1 из 1
Показать сообщения за:  Поле сортировки  
Начать новую тему Ответить на тему


Сейчас этот форум просматривают: нет зарегистрированных пользователей и гости: 0


Вы не можете начинать темы
Вы не можете отвечать на сообщения
Вы не можете редактировать свои сообщения
Вы не можете удалять свои сообщения
Вы не можете добавлять вложения

Перейти:  
cron