Начать новую тему Ответить на тему
Статистика раздачи
Размер: 349.22 МБ | Добавлен: 26 июн 2020, 17:53 | Скачали: 0
Сидеров: 0  [0 байт/сек]    Личеров: 0  [0 байт/сек]
Пред. тема | След. тема 

Автор
Сообщение

СообщениеДобавлено: 26 июн 2020, 17:53 

Ответить с цитатой 

Numb / Wasted Sky
Жанр: Industrial
Страна-производитель диска: US
Год издания диска: 1994
Издатель (лейбл): Metropolis Records
Номер по каталогу: MET 010
Страна: Canada
Аудиокодек: FLAC (*.flac)
Тип рипа: tracks+.cue
Битрейт аудио: lossless
Продолжительность: 52:07
Источник (релизер): свой фирменный диск
Наличие сканов в содержимом раздачи: нет
Треклист:
1 Wasted Sky 5:12
2 Blood 7:14
3 Driven 4:57
4 Keyak 4:21
5 Ophelia 5:36
6 Ratblast 5:03
7 Smile 6:01
8 Effigy 6:22
9 Seven Types Of Ambiguity 7:18
Код:
Exact Audio Copy V1.0 beta 2 from 29. April 2011
EAC extraction logfile from 29. September 2011, 20:50
Numb / Wasted Sky
Used drive  : PIONEER DVD-RW  DVR-115D   Adapter: 0  ID: 0
Read mode               : Secure
Utilize accurate stream : Yes
Defeat audio cache      : Yes
Make use of C2 pointers : No
Read offset correction                      : 48
Overread into Lead-In and Lead-Out          : No
Fill up missing offset samples with silence : Yes
Delete leading and trailing silent blocks   : No
Null samples used in CRC calculations       : Yes
Used interface                              : Installed external ASPI interface
Gap handling                                : Appended to previous track
Used output format              : User Defined Encoder
Selected bitrate                : 768 kBit/s
Quality                         : High
Add ID3 tag                     : Yes
Command line compressor         : C:\Program Files\Exact Audio Copy\FLAC\FLAC.EXE
Additional command line options : -6 -V -T "ARTIST=%artist%" -T "TITLE=%title%" -T "ALBUM=%albumtitle%" -T "DATE=%year%" -T "TRACKNUMBER=%tracknr%" -T "GENRE=%genre%" -T "COMMENT=%comment%" -T "BAND=%albuminterpret%" -T "COMPOSER=%composer%" %haslyrics%--ta
TOC of the extracted CD
     Track |   Start  |  Length  | Start sector | End sector
    ---------------------------------------------------------
        1  |  0:00.52 |  5:12.63 |        52    |    23514
        2  |  5:13.40 |  7:14.20 |     23515    |    56084
        3  | 12:27.60 |  4:57.09 |     56085    |    78368
        4  | 17:24.69 |  4:21.51 |     78369    |    97994
        5  | 21:46.45 |  5:36.60 |     97995    |   123254
        6  | 27:23.30 |  5:03.30 |    123255    |   146009
        7  | 32:26.60 |  6:01.05 |    146010    |   173089
        8  | 38:27.65 |  6:22.35 |    173090    |   201774
        9  | 44:50.25 |  7:18.07 |    201775    |   234631
Track  1
     Filename D:\zzz\01 - Wasted Sky.wav
     Pre-gap length  0:00:02.52
     Peak level 98.0 %
     Extraction speed 4.6 X
     Track quality 100.0 %
     Test CRC 4D404F8A
     Copy CRC 4D404F8A
     Accurately ripped (confidence 3)  [D56133E7]  (AR v2)
     Copy OK
Track  2
     Filename D:\zzz\02 - Blood.wav
     Peak level 95.2 %
     Extraction speed 5.1 X
     Track quality 99.9 %
     Test CRC BD7830D5
     Copy CRC BD7830D5
     Accurately ripped (confidence 3)  [C7827DA7]  (AR v2)
     Copy OK
Track  3
     Filename D:\zzz\03 - Driven.wav
     Peak level 95.2 %
     Extraction speed 5.3 X
     Track quality 99.9 %
     Test CRC 156DFAEE
     Copy CRC 156DFAEE
     Accurately ripped (confidence 2)  [25912AD3]  (AR v2)
     Copy OK
Track  4
     Filename D:\zzz\04 - Keyak.wav
     Peak level 95.2 %
     Extraction speed 6.1 X
     Track quality 100.0 %
     Test CRC 6D4880E7
     Copy CRC 6D4880E7
     Accurately ripped (confidence 3)  [EB75C2FD]  (AR v2)
     Copy OK
Track  5
     Filename D:\zzz\05 - Ophelia.wav
     Pre-gap length  0:00:01.28
     Peak level 95.2 %
     Extraction speed 6.7 X
     Track quality 100.0 %
     Test CRC 37FBFD4B
     Copy CRC 37FBFD4B
     Accurately ripped (confidence 3)  [BB0616E0]  (AR v2)
     Copy OK
Track  6
     Filename D:\zzz\06 - Ratblast.wav
     Peak level 95.2 %
     Extraction speed 7.0 X
     Track quality 100.0 %
     Test CRC 60BDCE2D
     Copy CRC 60BDCE2D
     Accurately ripped (confidence 3)  [B7FD7030]  (AR v2)
     Copy OK
Track  7
     Filename D:\zzz\07 - Smile.wav
     Pre-gap length  0:00:00.13
     Peak level 92.8 %
     Extraction speed 7.5 X
     Track quality 100.0 %
     Test CRC CF813B0C
     Copy CRC CF813B0C
     Accurately ripped (confidence 3)  [AD6E5CFC]  (AR v2)
     Copy OK
Track  8
     Filename D:\zzz\08 - Effigy.wav
     Peak level 93.6 %
     Extraction speed 7.3 X
     Track quality 99.9 %
     Test CRC 589431F7
     Copy CRC 589431F7
     Accurately ripped (confidence 3)  [C1C36434]  (AR v2)
     Copy OK
Track  9
     Filename D:\zzz\09 - Seven Types Of Ambiguity.wav
     Peak level 92.1 %
     Extraction speed 8.5 X
     Track quality 100.0 %
     Test CRC 216CEFC5
     Copy CRC 216CEFC5
     Accurately ripped (confidence 3)  [E5A0738E]  (AR v2)
     Copy OK
All tracks accurately ripped
No errors occurred
End of status report
==== Log checksum 78CA93EB2DA48B4EB12A48A9B69DE27EE7AEDE2214EC152A59CFF50A89514E09 ====
Код:
REM GENRE Rock
REM DATE 1994
REM DISCID 7D0C3809
REM COMMENT "ExactAudioCopy v1.0b2"
PERFORMER "Numb"
TITLE "Wasted Sky"
FILE "01 - Wasted Sky.wav" WAVE
  TRACK 01 AUDIO
    TITLE "Wasted Sky"
    PERFORMER "Numb"
    PREGAP 00:00:52
    INDEX 01 00:00:00
FILE "02 - Blood.wav" WAVE
  TRACK 02 AUDIO
    TITLE "Blood"
    PERFORMER "Numb"
    INDEX 01 00:00:00
FILE "03 - Driven.wav" WAVE
  TRACK 03 AUDIO
    TITLE "Driven"
    PERFORMER "Numb"
    INDEX 01 00:00:00
FILE "04 - Keyak.wav" WAVE
  TRACK 04 AUDIO
    TITLE "Keyak"
    PERFORMER "Numb"
    INDEX 01 00:00:00
  TRACK 05 AUDIO
    TITLE "Ophelia"
    PERFORMER "Numb"
    INDEX 00 04:20:23
FILE "05 - Ophelia.wav" WAVE
    INDEX 01 00:00:00
FILE "06 - Ratblast.wav" WAVE
  TRACK 06 AUDIO
    TITLE "Ratblast"
    PERFORMER "Numb"
    INDEX 01 00:00:00
  TRACK 07 AUDIO
    TITLE "Smile"
    PERFORMER "Numb"
    INDEX 00 05:03:17
FILE "07 - Smile.wav" WAVE
    INDEX 01 00:00:00
FILE "08 - Effigy.wav" WAVE
  TRACK 08 AUDIO
    TITLE "Effigy"
    PERFORMER "Numb"
    INDEX 01 00:00:00
FILE "09 - Seven Types Of Ambiguity.wav" WAVE
  TRACK 09 AUDIO
    TITLE "Seven Types Of Ambiguity"
    PERFORMER "Numb"
    INDEX 01 00:00:00
Код:
d:\>d:\aucdtect -d/-m0 d:\zzz\*.wav
auCDtect: CD records authenticity detector, version 0.8.2
Copyright (c) 2004 Oleg Berngardt. All rights reserved.
Copyright (c) 2004 Alexander Djourik. All rights reserved.
------------------------------------------------------------
Processing file: [01. Wasted Sky.wav]
------------------------------------------------------------
This track looks like CDDA with probability 100%
------------------------------------------------------------
Processing file: [02. Blood.wav]
------------------------------------------------------------
This track looks like CDDA with probability 100%
------------------------------------------------------------
Processing file: [03. Driven.wav]
------------------------------------------------------------
This track looks like CDDA with probability 100%
------------------------------------------------------------
Processing file: [04. Keyak.wav]
------------------------------------------------------------
This track looks like CDDA with probability 100%
------------------------------------------------------------
Processing file: [05. Ophelia.wav]
------------------------------------------------------------
This track looks like CDDA with probability 100%
------------------------------------------------------------
Processing file: [06. Ratblast.wav]
------------------------------------------------------------
This track looks like CDDA with probability 100%
------------------------------------------------------------
Processing file: [07. Smile.wav]
------------------------------------------------------------
This track looks like CDDA with probability 100%
------------------------------------------------------------
Processing file: [08. Effigy.wav]
------------------------------------------------------------
This track looks like CDDA with probability 100%
------------------------------------------------------------
Processing file: [09. Seven Types Of Ambiguity.wav]
------------------------------------------------------------
This track looks like CDDA with probability 100%
------------------------------------------------------------
Final Conclusion:
------------------------------------------------------------
These tracks looks like CDDA with probability 100%
Доп. информация:
Licensed by KK Records
All songs ©1994 SOCAN/SABAM.
Published by Coble/Warner Chappell.
Recorded and mixed at Squelch Sound and Mushroom Studios during June and July 1994.
Edited at Gotham City Studios.
Mastered at Bernie Grundman Mastering.
CD Matrix Lettering: MET 010 :MASTERED BY NIMBUS:
Producer – Hiwatt Marshall, Numb
Written-By – C. Hunter, D. Gordon, K. Marshall (tracks: 4)
Правила, инструкции, FAQ!!!
Торрент  Добавлен [26 июн 2020, 17:53] Скачать торрент Магнет ссылка
Скачать торрент
[ Размер 14.96 КБ / Просмотров 11 ]

Статус
Проверен 
 
Размер  349.22 МБ
Приватный: Нет (DHT включён)
.torrent скачан  0
 


     Отправить личное сообщение
   
Страница 1 из 1
Показать сообщения за:  Поле сортировки  
Начать новую тему Ответить на тему


Сейчас этот форум просматривают: нет зарегистрированных пользователей и гости: 0


Вы не можете начинать темы
Вы не можете отвечать на сообщения
Вы не можете редактировать свои сообщения
Вы не можете удалять свои сообщения
Вы не можете добавлять вложения

Перейти:  
cron