Начать новую тему Ответить на тему
Статистика раздачи
Размер: 269.31 МБ | Добавлен: 26 июн 2020, 19:45 | Скачали: 0
Сидеров: 0  [0 байт/сек]    Личеров: 0  [0 байт/сек]
Пред. тема | След. тема 

Автор
Сообщение

СообщениеДобавлено: 26 июн 2020, 19:45 

Ответить с цитатой 

NITZER EBB "Lighting Man"/"Getting Closer"/"Fun To Be Had"
Жанр: Industrial
Страна-производитель диска: U.S.A.
Год издания: 1990
Издатель (лейбл): Geffen Records
Номер по каталогу: 9 21602-2
Страна: UK
Аудиокодек: FLAC (*.flac)
Тип рипа: image+.cue
Битрейт аудио: lossless
Продолжительность: 0:42:08.02
Источник (релизер): рип с оригинального диска из собственной коллекции
Наличие сканов в содержимом раздачи: нет
Треклист:
Nitzer Ebb - cd single - Lightning Man~Getting Closer~Fun To Be Had
01. Lightning Man [the industry vs the ebb mix] 06:40 remixed by Daniel Miller
02. Lightning Man [rsw mix] 05:08 mixed by Flood
03. Getting Closer [the pool mix] 05:21 remixed by P.K. at Marcus Studios, London
04. Getting Closer [the trance mix] 07:17 remixed by Tony Garcia
05. Getting Closer [the kitchen mix] 05:08 remixed by Tony Garcia
06. Fun To Be Had [zulu mix] 05:20 remixed by Dust Brothers
07. Fun To Be Had [the george clinton/long mix] 07:14 remixed by George Clinton
Код:
Exact Audio Copy V1.0 beta 3 from 29. August 2011
Отчёт EAC об извлечении, выполненном 5. апреля 2012, 0:01
Nitzer Ebb / cd single - Lightning Man~Getting Closer~Fun To Be Had
Дисковод: TSSTcorpDVD+-RW TS-T633A   Adapter: 1  ID: 0
Режим чтения                 : Достоверность
Использование точного потока : Да
Отключение кэша аудио        : Да
Использование указателей C2  : Нет
Коррекция смещения при чтении                     : 6
Способность читать области Lead-in и Lead-out     : Нет
Заполнение пропущенных сэмплов тишиной            : Да
Удаление блоков с тишиной в начале и конце        : Нет
При вычислениях CRC использовались нулевые сэмплы : Да
Интерфейс                                         : Встроенный Win32-интерфейс для Win NT/2000
Выходной формат : Внутренние WAV-операции
Формат сэмплов  : 44.100 Гц; 16 бит; стерео
TOC извлечённого CD
     Трек |   Старт  | Длительность | Начальный сектор | Конечный сектор
    ---------------------------------------------------------------------
       1  |  0:00.00 |    6:40.32   |           0      |      30031
       2  |  6:40.32 |    5:08.28   |       30032      |      53159
       3  | 11:48.60 |    5:20.45   |       53160      |      77204
       4  | 17:09.30 |    7:16.72   |       77205      |     109976
       5  | 24:26.27 |    5:07.70   |      109977      |     133071
       6  | 29:34.22 |    5:19.60   |      133072      |     157056
       7  | 34:54.07 |    7:13.70   |      157057      |     189601
Характеристики диапазона извлечения и сообщения об ошибках
Выбранный диапазон
     Имя файла C:\Users\Petrovit\Music\The No.1\Nrtzerebb\Nitzer Ebb - cd single - Lightning Man~Getting Closer~Fun To Be Had.wav
     Пиковый уровень 100.0 %
     Скорость извлечения 3.9 X
     Качество диапазона 100.0 %
     CRC теста 900CB53E
     CRC копии 900CB53E
     Копирование... OK
Ошибок не произошло
AccurateRip: сводка
Трек  1  : извлечено точно (доверие 3)  [D881C33E]  (AR v2)
Трек  2  : извлечено точно (доверие 2)  [C37A6887]  (AR v2)
Трек  3  : извлечено точно (доверие 3)  [9BF4C533]  (AR v2)
Трек  4  : извлечено точно (доверие 3)  [374132DE]  (AR v2)
Трек  5  : извлечено точно (доверие 3)  [04C126E2]  (AR v2)
Трек  6  : извлечено точно (доверие 3)  [672D39A2]  (AR v2)
Трек  7  : извлечено точно (доверие 3)  [58D1F671]  (AR v2)
Все треки извлечены точно
Конец отчёта
Код:
REM GENRE Rock
REM DATE 1990
REM DISCID 4E09E007
REM COMMENT "ExactAudioCopy v1.0b3"
PERFORMER "Nitzer Ebb"
TITLE "cd single - Lightning Man~Getting Closer~Fun To Be Had"
FILE "Nitzer Ebb - cd single - Lightning Man~Getting Closer~Fun To Be Had.flac" FLAC
  TRACK 01 AUDIO
    TITLE "Lightning Man [the industry vs the ebb mix]"
    PERFORMER "Nitzer Ebb"
    INDEX 01 00:00:00
  TRACK 02 AUDIO
    TITLE "Lightning Man [rsw mix]"
    PERFORMER "Nitzer Ebb"
    INDEX 00 06:34:55
    INDEX 01 06:40:32
  TRACK 03 AUDIO
    TITLE "Getting Closer [the pool mix]"
    PERFORMER "Nitzer Ebb"
    INDEX 00 11:46:10
    INDEX 01 11:48:60
  TRACK 04 AUDIO
    TITLE "Getting Closer [the trance mix]"
    PERFORMER "Nitzer Ebb"
    INDEX 00 17:08:45
    INDEX 01 17:09:30
  TRACK 05 AUDIO
    TITLE "Getting Closer [the kitchen mix]"
    PERFORMER "Nitzer Ebb"
    INDEX 00 24:23:05
    INDEX 01 24:26:27
  TRACK 06 AUDIO
    TITLE "Fun To Be Had [zulu mix]"
    PERFORMER "Nitzer Ebb"
    INDEX 00 29:31:55
    INDEX 01 29:34:22
  TRACK 07 AUDIO
    TITLE "Fun To Be Had [the george clinton extended mix]"
    PERFORMER "Nitzer Ebb"
    INDEX 00 34:51:30
    INDEX 01 34:54:07
Доп. информация: Produced by Flood
from the Geffen album SHOWTIME.
Правила, инструкции, FAQ!!!
Торрент  Добавлен [26 июн 2020, 19:45] Скачать торрент Магнет ссылка
Скачать торрент
[ Размер 11.3 КБ / Просмотров 7 ]

Статус
Проверен 
 
Размер  269.31 МБ
Приватный: Нет (DHT включён)
.torrent скачан  0
 


     Отправить личное сообщение
   
Страница 1 из 1
Показать сообщения за:  Поле сортировки  
Начать новую тему Ответить на тему


Сейчас этот форум просматривают: нет зарегистрированных пользователей и гости: 0


Вы не можете начинать темы
Вы не можете отвечать на сообщения
Вы не можете редактировать свои сообщения
Вы не можете удалять свои сообщения
Вы не можете добавлять вложения

Перейти:  
cron