Начать новую тему Ответить на тему
Статистика раздачи
Размер: 358.82 МБ | Добавлен: 26 июн 2020, 16:49 | Скачали: 0
Сидеров: 0  [0 байт/сек]    Личеров: 0  [0 байт/сек]
Пред. тема | След. тема 

Автор
Сообщение

СообщениеДобавлено: 26 июн 2020, 16:49 

Ответить с цитатой 

In Viro / Gehorche! Fuhle! Glaube! (Gehorche! Fühle! Glaube!)
Жанр: Industrial, Neue Deutsche Härte
Страна-производитель диска: Germany
Год издания: 2010
Издатель (лейбл): Echozone
Номер по каталогу: EZ10C493
Страна: Germany
Аудиокодек: FLAC (*.flac)
Тип рипа: image+.cue
Битрейт аудио: lossless
Продолжительность: 49:10
Источник (релизер): Собственный Диск
Наличие сканов в содержимом раздачи: нет
Треклист:
01. Gehorche! Fuhle! Glaube!
02. Herzbrecher
03. Geiles Stuck
04. Firmament
05. Kuss Mich!
06 Vaterland, Oh Vaterland
07 Seemannsgrab
08. Ich Bin...
09. Trauma
10. Virus
11. Amok
12. Kreuzzug
Код:
Exact Audio Copy V1.0 beta 3 from 29. August 2011
EAC extraction logfile from 13. June 2013, 12:30
In Viro / Gehorche! Fühle! Glaube!
Used drive  : HP      DVD Writer 1170d   Adapter: 2  ID: 0
Read mode               : Secure
Utilize accurate stream : Yes
Defeat audio cache      : Yes
Make use of C2 pointers : No
Read offset correction                      : 6
Overread into Lead-In and Lead-Out          : No
Fill up missing offset samples with silence : Yes
Delete leading and trailing silent blocks   : No
Null samples used in CRC calculations       : Yes
Used interface                              : Native Win32 interface for Win NT & 2000
Used output format              : User Defined Encoder
Selected bitrate                : 1024 kBit/s
Quality                         : High
Add ID3 tag                     : No
Command line compressor         : C:\Program Files\Exact Audio Copy\FLAC\FLAC.EXE
Additional command line options : -V -8 -T "Date=%year%" -T "Genre=%genre%" %source%
TOC of the extracted CD
     Track |   Start  |  Length  | Start sector | End sector
    ---------------------------------------------------------
        1  |  0:00.00 |  3:38.05 |         0    |    16354
        2  |  3:38.05 |  4:42.20 |     16355    |    37524
        3  |  8:20.25 |  3:31.42 |     37525    |    53391
        4  | 11:51.67 |  4:07.10 |     53392    |    71926
        5  | 15:59.02 |  3:47.63 |     71927    |    89014
        6  | 19:46.65 |  6:10.21 |     89015    |   116785
        7  | 25:57.11 |  3:47.45 |    116786    |   133855
        8  | 29:44.56 |  3:58.53 |    133856    |   151758
        9  | 33:43.34 |  4:36.21 |    151759    |   172479
       10  | 38:19.55 |  3:17.32 |    172480    |   187286
       11  | 41:37.12 |  3:32.01 |    187287    |   203187
       12  | 45:09.13 |  4:01.55 |    203188    |   221317
Range status and errors
Selected range
     Filename C:\Users\Dima\Music\In Viro - Gehorche! Fühle! Glaube!.wav
     Peak level 96.3 %
     Extraction speed 4.2 X
     Range quality 100.0 %
     Test CRC EF636AE5
     Copy CRC EF636AE5
     Copy OK
No errors occurred
AccurateRip summary
Track  1  not present in database
Track  2  not present in database
Track  3  not present in database
Track  4  not present in database
Track  5  not present in database
Track  6  not present in database
Track  7  not present in database
Track  8  not present in database
Track  9  not present in database
Track 10  not present in database
Track 11  not present in database
Track 12  not present in database
None of the tracks are present in the AccurateRip database
End of status report
---- CUETools DB Plugin V2.1.3
[CTDB TOCID: hNoaZdmd3aEocZ_oMMH7wmBmfvg-] disk not present in database, Submit result: hNoaZdmd3aEocZ_oMMH7wmBmfvg- has been uploaded
==== Log checksum 27FF86A0D9EA8F07CDAC16BE733C055933CF405350A977C6256F55175CC71F4A ====
Правила, инструкции, FAQ!!!
Торрент  Добавлен [26 июн 2020, 16:49] Скачать торрент Магнет ссылка
Скачать торрент
[ Размер 14.74 КБ / Просмотров 18 ]

Статус
Проверен 
 
Размер  358.82 МБ
Приватный: Нет (DHT включён)
.torrent скачан  0
 


     Отправить личное сообщение
   
Страница 1 из 1
Показать сообщения за:  Поле сортировки  
Начать новую тему Ответить на тему


Сейчас этот форум просматривают: нет зарегистрированных пользователей и гости: 0


Вы не можете начинать темы
Вы не можете отвечать на сообщения
Вы не можете редактировать свои сообщения
Вы не можете удалять свои сообщения
Вы не можете добавлять вложения

Перейти:  
cron