Начать новую тему Ответить на тему
Статистика раздачи
Размер: 398.85 МБ | Добавлен: 26 июн 2020, 19:38 | Скачали: 0
Сидеров: 0  [0 байт/сек]    Личеров: 0  [0 байт/сек]
Пред. тема | След. тема 

Автор
Сообщение

СообщениеДобавлено: 26 июн 2020, 19:38 

Ответить с цитатой 

Mona Mur & En Esch / Do With Me What You Want
Жанр: Industrial
Носитель: CD
Страна-производитель диска: Canada
Год издания: 2011
Издатель (лейбл): Artoffact Records
Номер по каталогу: AOF 118
Страна: Germany
Аудиокодек: FLAC (*.flac)
Тип рипа: image+.cue
Битрейт аудио: lossless
Продолжительность: 01:00:09
Источник (релизер): Собственный диск
Наличие сканов в содержимом раздачи: нет
Треклист:
01 Touch
02 Silly Romance
03 Eiskalt (In Der Liebe Und Im Krieg)
04 Flesh & Blood
05 Easy Living
06 My Life
07 Do With Me What You Want
08 Guilty
09 Justice
10 Le Weltanschauung (Les Jeux Sont Faits)
11 New Order
12 Part Again
13 Do Widzenia
Код:
Exact Audio Copy V1.0 beta 3 from 29. August 2011
Отчёт EAC об извлечении, выполненном 27. марта 2014, 15:47
Mona Mur & En Esch / Do With Me What You Want
Дисковод: PIONEER BD-RW   BDR-209D   Adapter: 0  ID: 0
Режим чтения                 : Достоверность
Использование точного потока : Да
Отключение кэша аудио        : Да
Использование указателей C2  : Нет
Коррекция смещения при чтении                     : 0
Способность читать области Lead-in и Lead-out     : Нет
Заполнение пропущенных сэмплов тишиной            : Да
Удаление блоков с тишиной в начале и конце        : Нет
При вычислениях CRC использовались нулевые сэмплы : Да
Интерфейс                                         : Встроенный Win32-интерфейс для Win NT/2000
Выходной формат          : Пользовательский кодировщик
Выбранный битрейт        : 128 kBit/s
Качество                 : Высокий
Добавление ID3-тега      : Да
Утилита сжатия           : C:\Program Files (x86)\Exact Audio Copy\Flac\flac.exe
Дополнительные параметры : -V -8 -T "Date=%year%" -T "Genre=%genre%" %source%
TOC извлечённого CD
     Трек |   Старт  | Длительность | Начальный сектор | Конечный сектор
    ---------------------------------------------------------------------
       1  |  0:00.00 |    6:01.31   |           0      |      27105
       2  |  6:01.31 |    3:20.48   |       27106      |      42153
       3  |  9:22.04 |    3:45.25   |       42154      |      59053
       4  | 13:07.29 |    4:57.17   |       59054      |      81345
       5  | 18:04.46 |    3:26.50   |       81346      |      96845
       6  | 21:31.21 |    4:54.38   |       96846      |     118933
       7  | 26:25.59 |    6:09.01   |      118934      |     146609
       8  | 32:34.60 |    6:42.36   |      146610      |     176795
       9  | 39:17.21 |    5:23.55   |      176796      |     201075
      10  | 44:41.01 |    6:18.36   |      201076      |     229461
      11  | 50:59.37 |    0:39.05   |      229462      |     232391
      12  | 51:38.42 |    5:52.06   |      232392      |     258797
      13  | 57:30.48 |    2:38.66   |      258798      |     270713
Характеристики диапазона извлечения и сообщения об ошибках
Выбранный диапазон
     Имя файла D:\Flac\Новая папка\Mona Mur & En Esch - Do With Me What You Want.wav
     Пиковый уровень 100.0 %
     Скорость извлечения 7.5 X
     Качество диапазона 99.9 %
     CRC теста 7F20DCB6
     CRC копии 7F20DCB6
     Копирование... OK
Ошибок не произошло
Конец отчёта
==== Контрольная сумма отчёта 60CCB5C4B77C024DFEF9BFE37CA84399C2FF04A7CD09B886CE195195990DDC90 ====
Правила, инструкции, FAQ!!!
Торрент  Добавлен [26 июн 2020, 19:38] Скачать торрент Магнет ссылка
Скачать торрент
[ Размер 16.35 КБ / Просмотров 7 ]

Статус
Проверен 
 
Размер  398.85 МБ
Приватный: Нет (DHT включён)
.torrent скачан  0
 


     Отправить личное сообщение
   
Страница 1 из 1
Показать сообщения за:  Поле сортировки  
Начать новую тему Ответить на тему


Сейчас этот форум просматривают: нет зарегистрированных пользователей и гости: 0


Вы не можете начинать темы
Вы не можете отвечать на сообщения
Вы не можете редактировать свои сообщения
Вы не можете удалять свои сообщения
Вы не можете добавлять вложения

Перейти:  
cron