Начать новую тему Ответить на тему
Статистика раздачи
Размер: 331.25 МБ | Добавлен: 26 июн 2020, 20:05 | Скачали: 1
Сидеров: 0  [0 байт/сек]    Личеров: 2  [0 байт/сек]
Пред. тема | След. тема 

Автор
Сообщение

СообщениеДобавлено: 26 июн 2020, 20:05 

Ответить с цитатой 

Weto / Schattenspieler
Жанр: Industrial Metal
Носитель: CD
Страна-производитель диска (релиза): Germany
Год издания: 2011
Издатель (лейбл): F.A.M.E. A
Страна исполнителя (группы): Germany
Аудиокодек: FLAC (*.flac)
Тип рипа: image+.cue
Битрейт аудио: lossless
Продолжительность: 00:48:28
Источник (релизер): Собственный CD
Наличие сканов в содержимом раздачи: нет
Треклист:
01. Eiszeit
02. Feuertanz
03. Was bleibt
04. In das Licht
05. Orient und Okzident
06. Glaubst du noch
07. Krank
08. Schattenspieler
09. Reise
10. Ausgebrannt
11. Zwei Raben
12. In das Licht (Radio Edit)
Код:
Exact Audio Copy V1.1 from 23. June 2015
Отчёт EAC об извлечении, выполненном 30. августа 2015, 20:02
WETO / Schattenspieler
Дисковод: ASUS    DRW-24B1ST   Adapter: 1  ID: 0
Режим чтения                 : Достоверность
Использование точного потока : Да
Отключение кэша аудио        : Да
Использование указателей C2  : Нет
Коррекция смещения при чтении                     : 6
Способность читать области Lead-in и Lead-out     : Нет
Заполнение пропущенных сэмплов тишиной            : Да
Удаление блоков с тишиной в начале и конце        : Нет
При вычислениях CRC использовались нулевые сэмплы : Да
Интерфейс                                         : Встроенный Win32-интерфейс для Win NT/2000
Выходной формат          : Пользовательский кодировщик
Выбранный битрейт        : 768 kBit/s
Качество                 : Высокий
Добавление ID3-тега      : Нет
Утилита сжатия           : C:\Program Files (x86)\Exact Audio Copy\FLAC\FLAC.EXE
Дополнительные параметры :  -V -8 -T "Genre=%genre%" -T "Artist=%artist%" -T "Title=%title%" -T "Album=%albumtitle%" -T "Date=%year%" -T "Tracknumber=%tracknr%" -T "Comment=%comment%" %source%
TOC извлечённого CD
     Трек |   Старт  | Длительность | Начальный сектор | Конечный сектор
    ---------------------------------------------------------------------
       1  |  0:00.00 |    3:44.51   |           0      |      16850
       2  |  3:44.51 |    3:44.62   |       16851      |      33712
       3  |  7:29.38 |    3:52.60   |       33713      |      51172
       4  | 11:22.23 |    3:57.24   |       51173      |      68971
       5  | 15:19.47 |    4:27.68   |       68972      |      89064
       6  | 19:47.40 |    3:17.63   |       89065      |     103902
       7  | 23:05.28 |    3:02.39   |      103903      |     117591
       8  | 26:07.67 |    4:36.51   |      117592      |     138342
       9  | 30:44.43 |    3:32.31   |      138343      |     154273
      10  | 34:16.74 |    4:12.56   |      154274      |     173229
      11  | 38:29.55 |    6:21.41   |      173230      |     201845
      12  | 44:51.21 |    3:36.54   |      201846      |     218099
Характеристики диапазона извлечения и сообщения об ошибках
Выбранный диапазон
     Имя файла D:\Музыка\weto1\WETO - Schattenspieler.wav
     Пиковый уровень 98.3 %
     Скорость извлечения 8.3 X
     Качество диапазона 99.9 %
     CRC теста 0AFEDFB6
     CRC копии 0AFEDFB6
     Копирование... OK
Ошибок не произошло
AccurateRip: сводка
Трек  1  : извлечено точно (доверие 9)  [77B23535]  (AR v2)
Трек  2  : извлечено точно (доверие 9)  [F2334111]  (AR v2)
Трек  3  : извлечено точно (доверие 9)  [92329BDC]  (AR v2)
Трек  4  : извлечено точно (доверие 9)  [07D602AF]  (AR v2)
Трек  5  : извлечено точно (доверие 9)  [17743B76]  (AR v2)
Трек  6  : извлечено точно (доверие 9)  [5DA0DF5E]  (AR v2)
Трек  7  : извлечено точно (доверие 9)  [29C8AF0A]  (AR v2)
Трек  8  : извлечено точно (доверие 9)  [B55AAA00]  (AR v2)
Трек  9  : извлечено точно (доверие 9)  [C03C146A]  (AR v2)
Трек 10  : извлечено точно (доверие 9)  [33E23855]  (AR v2)
Трек 11  : извлечено точно (доверие 9)  [EFC59654]  (AR v2)
Трек 12  : извлечено точно (доверие 9)  [4862DBB6]  (AR v2)
Все треки извлечены точно
Конец отчёта
==== Контрольная сумма отчёта C900428D9892707330F81D4F7667EF56CBD702F7B851FA8EBE09AD75AD91ED36 ====
Код:
AUDIOCHECKER v2.0 beta (build 457) - by Dester - opdester@freemail.hu
~~~~~~~~~~~~~~~~~~~~~~~~~~~~~~~~~~
Started at: âîñêðåñåíüå, 30. 08. 2015. - 20:06.23
1 file found
1 -===- D:\Ìóçûêà\LOOSLESS\WETO - Schattenspieler\WETO - Schattenspieler.flac
  Extracted successfully
  Conclusion: this track is CDDA with probability 100%
  Tempfile successfully deleted.
Finished at: âîñêðåñåíüå, 30. 08. 2015. - 20:12.43 (operation time: 0:06.20)
Сольный проект вокалиста немецкой группы Schandmaul Томаса Линднера.
Заново сделал рип с рекомедованными настройками. Пересоздан торерент.
Правила, инструкции, FAQ!!!
Торрент  Добавлен [26 июн 2020, 20:05] Скачать торрент Магнет ссылка
Скачать торрент
[ Размер 13.57 КБ / Просмотров 10 ]

Статус
Проверен 
 
Размер  331.25 МБ
Приватный: Нет (DHT включён)
.torrent скачан  1
 


     Отправить личное сообщение
   
Страница 1 из 1
Показать сообщения за:  Поле сортировки  
Начать новую тему Ответить на тему


Сейчас этот форум просматривают: нет зарегистрированных пользователей и гости: 0


Вы не можете начинать темы
Вы не можете отвечать на сообщения
Вы не можете редактировать свои сообщения
Вы не можете удалять свои сообщения
Вы не можете добавлять вложения

Перейти:  
cron
cron