Начать новую тему Ответить на тему
Статистика раздачи
Размер: 541.59 МБ | Добавлен: 26 июн 2020, 19:06 | Скачали: 1
Сидеров: 0  [0 байт/сек]    Личеров: 0  [0 байт/сек]
Пред. тема | След. тема 

Автор
Сообщение

СообщениеДобавлено: 26 июн 2020, 19:06 

Ответить с цитатой 

Terminal Choice / Menschenbrecher
Жанр: Industrial Metal
Носитель: CD
Страна-производитель диска (релиза): Germany
Страна исполнителя (группы): Germany
Лейбл: Out of Line
Номер по каталогу: OUT 105, SPV CD 085-39372
Время звучания: 0:54:58
Аудиокодек: FLAC (*.flac)
Тип рипа: image+.cue
Битрейт аудио: lossless
Источник (релизер): диск из личной коллекции
Наличие сканов в содержимом раздачи: да
Треклист:
1. She's The Devil (4:43)
2. Menschenbrecher (4:43)
3. You Don't Deserve Me (3:39)
4. Injustice (4:16)
5. Stay With Me (5:39)
6. Warriors From Outa Space (4:13)
7. Engelstod (4:37)
8. Pull The Trigger (4:29)
9. Eiszeit (4:23)
10. Why Me ? (5:25)
11. Out Of The Dark (5:02)
12. Be Like Me (3:42)
Код:
Exact Audio Copy V1.0 beta 5 from 2. April 2015
EAC extraction logfile from 7. July 2015, 0:43
Terminal Choice / Menschenbrecher
Used drive  : Optiarc DVD RW AD-7643S   Adapter: 1  ID: 0
Read mode               : Secure
Utilize accurate stream : Yes
Defeat audio cache      : Yes
Make use of C2 pointers : No
Read offset correction                      : 6
Overread into Lead-In and Lead-Out          : No
Fill up missing offset samples with silence : Yes
Delete leading and trailing silent blocks   : No
Null samples used in CRC calculations       : Yes
Used interface                              : Native Win32 interface for Win NT & 2000
Used output format              : User Defined Encoder
Selected bitrate                : 128 kBit/s
Quality                         : High
Add ID3 tag                     : No
Command line compressor         : C:\Program Files (x86)\Exact Audio Copy\Flac\flac.exe
Additional command line options : -V -8 -T "Date=%year%" -T "Genre=%genre%" %source%
TOC of the extracted CD
     Track |   Start  |  Length  | Start sector | End sector
    ---------------------------------------------------------
        1  |  0:00.00 |  4:43.59 |         0    |    21283
        2  |  4:43.59 |  4:43.37 |     21284    |    42545
        3  |  9:27.21 |  3:39.56 |     42546    |    59026
        4  | 13:07.02 |  4:16.02 |     59027    |    78228
        5  | 17:23.04 |  5:39.30 |     78229    |   103683
        6  | 23:02.34 |  4:13.18 |    103684    |   122676
        7  | 27:15.52 |  4:37.43 |    122677    |   143494
        8  | 31:53.20 |  4:29.54 |    143495    |   163723
        9  | 36:22.74 |  4:23.69 |    163724    |   183517
       10  | 40:46.68 |  5:25.63 |    183518    |   207955
       11  | 46:12.56 |  5:02.41 |    207956    |   230646
       12  | 51:15.22 |  3:42.57 |    230647    |   247353
Range status and errors
Selected range
     Filename C:\Terminal Choice - Menschenbrecher.wav
     Peak level 100.0 %
     Extraction speed 4.6 X
     Range quality 100.0 %
     Test CRC 59D1D3BE
     Copy CRC 59D1D3BE
     Copy OK
No errors occurred
AccurateRip summary
Track  1  accurately ripped (confidence 3)  [428A4991]  (AR v2)
Track  2  accurately ripped (confidence 3)  [558766BF]  (AR v2)
Track  3  accurately ripped (confidence 3)  [0AFD8C26]  (AR v2)
Track  4  accurately ripped (confidence 2)  [3E445296]  (AR v2)
Track  5  accurately ripped (confidence 3)  [00AEEDE4]  (AR v2)
Track  6  accurately ripped (confidence 3)  [6F5FC166]  (AR v2)
Track  7  accurately ripped (confidence 3)  [96761159]  (AR v2)
Track  8  accurately ripped (confidence 2)  [561EF64C]  (AR v2)
Track  9  accurately ripped (confidence 2)  [E6787346]  (AR v2)
Track 10  accurately ripped (confidence 3)  [47DDB235]  (AR v2)
Track 11  accurately ripped (confidence 3)  [7990650D]  (AR v2)
Track 12  accurately ripped (confidence 2)  [F8D512B0]  (AR v2)
All tracks accurately ripped
End of status report
---- CUETools DB Plugin V2.1.6
[CTDB TOCID: 9zyc3JHUK_XLkTGXQuTLoK.kszI-] found
Submit result: 9zyc3JHUK_XLkTGXQuTLoK.kszI- has been confirmed
Track | CTDB Status
  1   | (8/8) Accurately ripped
  2   | (8/8) Accurately ripped
  3   | (8/8) Accurately ripped
  4   | (8/8) Accurately ripped
  5   | (8/8) Accurately ripped
  6   | (8/8) Accurately ripped
  7   | (8/8) Accurately ripped
  8   | (8/8) Accurately ripped
  9   | (8/8) Accurately ripped
 10   | (8/8) Accurately ripped
 11   | (8/8) Accurately ripped
 12   | (8/8) Accurately ripped
==== Log checksum A78D5B2AAF6D9DAB3DF01BC9CCCAB02AF1A2789FA8E1573483CCCC464318C44E ====
Правила, инструкции, FAQ!!!
Торрент  Добавлен [26 июн 2020, 19:06] Скачать торрент Магнет ссылка
Скачать торрент
[ Размер 12.76 КБ / Просмотров 7 ]

Статус
Проверен 
 
Размер  541.59 МБ
Приватный: Нет (DHT включён)
.torrent скачан  1
 


     Отправить личное сообщение
   
Страница 1 из 1
Показать сообщения за:  Поле сортировки  
Начать новую тему Ответить на тему


Сейчас этот форум просматривают: нет зарегистрированных пользователей и гости: 0


Вы не можете начинать темы
Вы не можете отвечать на сообщения
Вы не можете редактировать свои сообщения
Вы не можете удалять свои сообщения
Вы не можете добавлять вложения

Перейти:  
cron