Начать новую тему Ответить на тему
Статистика раздачи
Размер: 1.22 ГБ | Добавлен: 26 июн 2020, 20:27 | Скачали: 0
Сидеров: 0  [0 байт/сек]    Личеров: 0  [0 байт/сек]
Пред. тема | След. тема 

Автор
Сообщение

СообщениеДобавлено: 26 июн 2020, 20:27 

Ответить с цитатой 

Die Krupps - 3 Albums: 1994, 1995, 1997
Жанр: Industrial Metal / Heavy Metal
Страны-производители дисков: Austria, U.K.
Годы изданий: 1994, 1995, 1997
Издатели (лейблы): Our Choice, Music For Nations
Страна: Germany
Аудиокодек: APE (*.ape)
Тип рипа: image+.cue
Битрейт аудио: lossless
Источник (релизер): Собственная коллекция
Наличие сканов в содержимом раздачи: да
Альбомы:
1. 1994 - The Final Remixes (Austria, Our Choice RTD 195.1995.2)
2. 1995 - III: Odyssey Of The Mind (U.K., Music For Nations CDMFN 187)
3. 1997 - Paradise Now (U.K., Music For Nations CDMFN 218)
Die Krupps — немецкая группа, основанная в 1980 году Юргеном Энглером и Бернардом Малакой в Дюссельдорфе, играющая в стиле индастриал-рок/индастриал-метал.
Название группы следует читать по-немецки. Оно ссылается на известную германскую промышленную династию Крупп, владельцев сталелитейного и военного производства. Группа имеет активную антимилитаристкую позицию и, вероятно, такое название было выбрано, чтобы подчеркнуть роль семьи Крупп (в частности Альфреда Круппа) в вооружении Третьего рейха во время Второй мировой войны.
Группа была распущена в 1997 году, после выхода альбома Paradise Now, а Енглер занялся проектом DKay.com, с которым выпустил всего 2 альбома. Тем не менее к 25-летию с момента создания, в 2005 году музыканты вновь собрались, чтобы дать несколько выступлений.
В 2007 году Die Krupps перезаписали свои лучшие вещи и выпустили их как двухдисковый альбом «Too Much History», в который также вошла одна новая песня и две, ранее не издававшиеся. Группа стала активно гастролировать. В нескольких последних интервью музыканты говорили о намерении выпустить сингл, а затем и новый альбом, но пока вышли лишь переиздания альбомов «I» и «Volle Kraft Voraus», а также ремиксованный альбом «Volle Kraft Null Acht». (Ли Алтус, гитара, в группе больше не играет)
В приложении к октябрьскому номеру музыкального журнала Sonic Seducer: Cold Hands Seduction Vol.112 была опубликована новая песня 'Die Macht', сочетающая в себе элементы EBM и metal’а. Песня вошла в новый EP группы под названием «Als waren wir fur immer», выход которой состоялся 22 ноября 2010 года.
Далее после 2 летнего молчания Die Krupps вновь возвращаются с новым материалом! В данный момент в сети можно послушать новый трек группы "Industrie-Mädchen" предваряющий выход нового одноименного сингла. Так же стало известно, что на осень 2012 года запланирован выход нового альбома. Релизом занимается Synthetic Symphony / SPV GmbH. Трек "Industrie-Mädchen" записан в стиле EBM, который исполняли Die Krupps в первую треть 90х годов. Ссылка на трек: http://soundcloud.com/spv-1/die-krupps-industrie-maedchen
Die Krupps / The Final Remixes
#777Жанр: Industrial Metal / Heavy Metal
Страна-производитель диска: Austria
Год издания: 1994
Издатель (лейбл): Our Choice
Номер по каталогу: RTD 195.1995.2
Страна: Germany
Аудиокодек: APE (*.ape)
Тип рипа: image+.cue
Битрейт аудио: lossless
Продолжительность: 01:08:00
Источник (релизер): Собственная коллекция
Наличие сканов в содержимом раздачи: да
Треклист:
1. To The Hilt (Erlend Ottem & Jocke Skog Of Clawfinger Remix) (3:38)
2. Paradise Of Sin (Luc Van Acker Of Revolting Cocks Remix) (4:00)
3. Language Of Reality (Charlie Clouser & Mick Cripps Remix) (4:40)
4. Fatherland (Andrew Eldritch Of The Sisters Of Mercy & Rodney Orpheus Of The Cassandra Complex Remix) (4:35)
5. Worst Case Scenario (White Child Rix Of Gunshot Remix) (3:33)
6. Shellshocked (Aaron Aedy Of Paradise Lost Remix) (4:01)
7. Crossfire (Jim Martin Remix) (4:29)
8. Bloodsuckers (Phillip Boa & M. D. Moses Remix) (3:49)
9. Iron Man (Sascha Of KMFDM & Chris Shepard Remix) (4:48)
10. Inside Out (Jeff Walker Of Carcass Remix) (5:08)
11. New Temptation (F.M. Einheit Of Einstürzende Neubauten Remix) (3:33)
12. Hi Tech Low Life (Julian Beeston & Del Tagg Remix) (4:08)
13. The Dawning Of Doom (Waltari Remix) (3:54)
14. Ministry Of Fear (Xanu & The Skin Of N-Factor Remix) (5:22)
15. Metal Machine Music (Rodney Orpheus Of The Cassandra Complex Remix) (3:37)
16. Rings Of Steel (Pro-Pain & Steve Remote Remix) (4:22)
Код:
Exact Audio Copy V1.0 beta 3 from 29. August 2011
EAC extraction logfile from 12. August 2012, 18:05
Die Krupps / The Final Remixes
Used drive  : Optiarc DVD RW AD-7173S   Adapter: 3  ID: 0
Read mode               : Secure
Utilize accurate stream : Yes
Defeat audio cache      : Yes
Make use of C2 pointers : No
Read offset correction                      : 48
Overread into Lead-In and Lead-Out          : No
Fill up missing offset samples with silence : Yes
Delete leading and trailing silent blocks   : No
Null samples used in CRC calculations       : Yes
Used interface                              : Native Win32 interface for Win NT & 2000
Used output format : Internal WAV Routines
Sample format      : 44.100 Hz; 16 Bit; Stereo
TOC of the extracted CD
     Track |   Start  |  Length  | Start sector | End sector
    ---------------------------------------------------------
        1  |  0:00.00 |  3:41.18 |         0    |    16592
        2  |  3:41.18 |  4:02.35 |     16593    |    34777
        3  |  7:43.53 |  4:42.30 |     34778    |    55957
        4  | 12:26.08 |  4:37.35 |     55958    |    76767
        5  | 17:03.43 |  3:35.30 |     76768    |    92922
        6  | 20:38.73 |  4:04.07 |     92923    |   111229
        7  | 24:43.05 |  4:30.48 |    111230    |   131527
        8  | 29:13.53 |  3:51.20 |    131528    |   148872
        9  | 33:04.73 |  4:50.37 |    148873    |   170659
       10  | 37:55.35 |  5:09.38 |    170660    |   193872
       11  | 43:04.73 |  3:36.20 |    193873    |   210092
       12  | 46:41.18 |  4:10.55 |    210093    |   228897
       13  | 50:51.73 |  3:55.62 |    228898    |   246584
       14  | 54:47.60 |  5:24.38 |    246585    |   270922
       15  | 60:12.23 |  3:38.70 |    270923    |   287342
       16  | 63:51.18 |  4:23.20 |    287343    |   307087
Range status and errors
Selected range
     Filename N:\!!!EAC\Die Krupps\1994 - The Final Remixes\Die Krupps - The Final Remixes.wav
     Peak level 99.0 %
     Extraction speed 1.7 X
     Range quality 100.0 %
     Test CRC B914132C
     Copy CRC B914132C
     Copy OK
No errors occurred
AccurateRip summary
Track  1  accurately ripped (confidence 9)  [643BE2EC]  (AR v2)
Track  2  accurately ripped (confidence 9)  [D342187A]  (AR v2)
Track  3  accurately ripped (confidence 9)  [7EA7B1D0]  (AR v2)
Track  4  accurately ripped (confidence 9)  [2D3F6CE7]  (AR v2)
Track  5  accurately ripped (confidence 9)  [77B90D30]  (AR v2)
Track  6  accurately ripped (confidence 9)  [4FED377F]  (AR v2)
Track  7  accurately ripped (confidence 9)  [E32EC4B4]  (AR v2)
Track  8  accurately ripped (confidence 9)  [8129C59D]  (AR v2)
Track  9  accurately ripped (confidence 9)  [8142F534]  (AR v2)
Track 10  accurately ripped (confidence 9)  [988982F1]  (AR v2)
Track 11  accurately ripped (confidence 9)  [6ED57FD6]  (AR v2)
Track 12  accurately ripped (confidence 9)  [B5D1AB9B]  (AR v2)
Track 13  accurately ripped (confidence 9)  [2AFAFF7B]  (AR v2)
Track 14  accurately ripped (confidence 9)  [3B4920E5]  (AR v2)
Track 15  accurately ripped (confidence 9)  [15CBF855]  (AR v2)
Track 16  accurately ripped (confidence 8)  [80B706AB]  (AR v2)
All tracks accurately ripped
End of status report
==== Log checksum 7EBFEF7719503092AC8B298236EF51C516DFA5DB7AAB08B40D38F396D0AAC6EA ====

Доп. информация:
Barcode: 4 005902 199520
Matrix / Runout: RTD195-1995-2 11
Label Code: LC5661
Альбом ремиксов на свои хиты созданный при участии музыкантов Andrew Eldritch из Sisters of Mercy's, Julian Beeston из Nitzer Ebb's, Jim Martin из Faith No More и пр.
Jürgen Engler – vocals, keyboards, sampler
Lee Altus – guitar
Rüdiger Esch – bass
Darren Minter – drums
Ralf Dörperr – sample
Die Krupps / III: Odyssey Of The Mind
#777Жанр: Industrial Metal / Heavy Metal
Страна-производитель диска: U.K.
Год издания: 1995
Издатель (лейбл): Music For Nations
Номер по каталогу: CDMFN 187
Страна: Germany
Аудиокодек: APE (*.ape)
Тип рипа: image+.cue
Битрейт аудио: lossless
Продолжительность: 00:48:04
Источник (релизер): Собственная коллекция
Наличие сканов в содержимом раздачи: да
Треклист:
1. The Last Flood (5:33)
2. Isolation (4:14)
3. Odyssey Of The Mind (5:05)
4. Eggshell (4:51)
5. Scent (4:19)
6. The Final Option (4:11)
7. LCD (4:17)
8. Jekyll Or Hide (3:49)
9. Metalmorphosis (4:39)
10. Alive (7:02)
Код:
Exact Audio Copy V1.0 beta 3 from 29. August 2011
EAC extraction logfile from 12. August 2012, 19:12
Die Krupps / III: Odyssey Of The Mind
Used drive  : Optiarc DVD RW AD-7173S   Adapter: 3  ID: 0
Read mode               : Secure
Utilize accurate stream : Yes
Defeat audio cache      : Yes
Make use of C2 pointers : No
Read offset correction                      : 48
Overread into Lead-In and Lead-Out          : No
Fill up missing offset samples with silence : Yes
Delete leading and trailing silent blocks   : No
Null samples used in CRC calculations       : Yes
Used interface                              : Native Win32 interface for Win NT & 2000
Used output format : Internal WAV Routines
Sample format      : 44.100 Hz; 16 Bit; Stereo
TOC of the extracted CD
     Track |   Start  |  Length  | Start sector | End sector
    ---------------------------------------------------------
        1  |  0:00.00 |  5:33.72 |         0    |    25046
        2  |  5:33.72 |  4:14.30 |     25047    |    44126
        3  |  9:48.27 |  5:05.00 |     44127    |    67001
        4  | 14:53.27 |  4:51.08 |     67002    |    88834
        5  | 19:44.35 |  4:19.65 |     88835    |   108324
        6  | 24:04.25 |  4:11.57 |    108325    |   127206
        7  | 28:16.07 |  4:17.13 |    127207    |   146494
        8  | 32:33.20 |  3:49.07 |    146495    |   163676
        9  | 36:22.27 |  4:39.55 |    163677    |   184656
       10  | 41:02.07 |  7:02.03 |    184657    |   216309
Range status and errors
Selected range
     Filename N:\!!!EAC\Die Krupps\1995 - III - Odyssey Of The Mind\Die Krupps - III - Odyssey Of The Mind.wav
     Peak level 97.2 %
     Extraction speed 1.3 X
     Range quality 99.9 %
     Test CRC 7B787C84
     Copy CRC 7B787C84
     Copy OK
No errors occurred
AccurateRip summary
Track  1  accurately ripped (confidence 3)  [9D393C96]  (AR v1)
Track  2  accurately ripped (confidence 3)  [34E7A4E9]  (AR v1)
Track  3  accurately ripped (confidence 3)  [0FA34D60]  (AR v1)
Track  4  accurately ripped (confidence 4)  [9707D62F]  (AR v1)
Track  5  accurately ripped (confidence 3)  [859E6BF3]  (AR v1)
Track  6  accurately ripped (confidence 3)  [89CB9D79]  (AR v1)
Track  7  accurately ripped (confidence 3)  [98F3C8A5]  (AR v1)
Track  8  accurately ripped (confidence 3)  [849284F6]  (AR v1)
Track  9  not present in database
Track 10  accurately ripped (confidence 3)  [D1474CC2]  (AR v1)
 9 трек(и) скопированы точно
 1 трек(и) не содержатся в базе AccurateRip
Some tracks could not be verified as accurate
End of status report
==== Log checksum 9444DB78CC32BFBC9CFBE081F92A3E5865774A567A87D0A8F00397C6804F5063 ====

Доп. информация:
Barcode: 5 016583 118723
Matrix / Runout: CDMFN187
Issued under licence from Rough Trade Records Gmbh
III: Odyssey Of The Mind - 6-й альбом группы, в котором группа еще дальше ушла от своих электронных корней.
Jürgen Engler - vocals, keyboards, metal percussion, guitar
Lee Altus - guitar
Rüdiger Esch - bass guitar
Christopher Lietz - drum programming
Ralf Dörper - keyboards, samples
Die Krupps / Paradise Now
#777Жанр: Industrial Metal / Heavy Metal
Страна-производитель диска: U.K.
Год издания: 1997
Издатель (лейбл): Music For Nations
Номер по каталогу: CDMFN 218
Страна: Germany
Аудиокодек: APE (*.ape)
Тип рипа: image+.cue
Битрейт аудио: lossless
Продолжительность: 00:55:31
Источник (релизер): Собственная коллекция
Наличие сканов в содержимом раздачи: да
Треклист:
1. Moving Beyond (4:25)
2. The Gods Of Void (4:26)
3. Paradise Now (5:00)
4. Black Beauty White Heat (5:04)
5. Reconstruction (4:28)
6. Behind (1:35)
7. Taste Of Taboo (5:35)
8. Rise Up (3:39)
9. Fire (3:13)
10. Full Circle (4:01)
11. Vortex (4:25)
12. 30 Seconds (4:04)
13. (A New) Society Treaty (5:28)
Код:
Exact Audio Copy V1.0 beta 3 from 29. August 2011
EAC extraction logfile from 12. August 2012, 20:27
Die Krupps / Paradise Now
Used drive  : Optiarc DVD RW AD-7173S   Adapter: 3  ID: 0
Read mode               : Secure
Utilize accurate stream : Yes
Defeat audio cache      : Yes
Make use of C2 pointers : No
Read offset correction                      : 48
Overread into Lead-In and Lead-Out          : No
Fill up missing offset samples with silence : Yes
Delete leading and trailing silent blocks   : No
Null samples used in CRC calculations       : Yes
Used interface                              : Native Win32 interface for Win NT & 2000
Used output format : Internal WAV Routines
Sample format      : 44.100 Hz; 16 Bit; Stereo
TOC of the extracted CD
     Track |   Start  |  Length  | Start sector | End sector
    ---------------------------------------------------------
        1  |  0:00.00 |  4:24.57 |         0    |    19856
        2  |  4:24.57 |  4:26.43 |     19857    |    39849
        3  |  8:51.25 |  5:00.52 |     39850    |    62401
        4  | 13:52.02 |  5:03.40 |     62402    |    85166
        5  | 18:55.42 |  4:27.50 |     85167    |   105241
        6  | 23:23.17 |  1:34.63 |    105242    |   112354
        7  | 24:58.05 |  5:35.30 |    112355    |   137509
        8  | 30:33.35 |  3:38.32 |    137510    |   153891
        9  | 34:11.67 |  3:12.23 |    153892    |   168314
       10  | 37:24.15 |  4:01.32 |    168315    |   186421
       11  | 41:25.47 |  4:24.28 |    186422    |   206249
       12  | 45:50.00 |  4:04.40 |    206250    |   224589
       13  | 49:54.40 |  5:36.35 |    224590    |   249824
Range status and errors
Selected range
     Filename N:\!!!EAC\Die Krupps\1997 - Paradise Now\Die Krupps - Paradise Now.wav
     Peak level 99.3 %
     Extraction speed 1.5 X
     Range quality 100.0 %
     Test CRC A100DAF7
     Copy CRC A100DAF7
     Copy OK
No errors occurred
AccurateRip summary
Track  1  accurately ripped (confidence 5)  [DF242925]  (AR v1)
Track  2  accurately ripped (confidence 5)  [13506D89]  (AR v1)
Track  3  accurately ripped (confidence 5)  [659D5D6F]  (AR v1)
Track  4  accurately ripped (confidence 5)  [D6C6564E]  (AR v1)
Track  5  accurately ripped (confidence 5)  [1071FA37]  (AR v1)
Track  6  accurately ripped (confidence 5)  [11584B08]  (AR v1)
Track  7  accurately ripped (confidence 5)  [22A5AFA4]  (AR v1)
Track  8  accurately ripped (confidence 5)  [67FA6E30]  (AR v1)
Track  9  accurately ripped (confidence 5)  [B86EA19E]  (AR v1)
Track 10  accurately ripped (confidence 5)  [B46B74F2]  (AR v1)
Track 11  accurately ripped (confidence 5)  [E4F21DCD]  (AR v1)
Track 12  accurately ripped (confidence 5)  [BA953D1F]  (AR v1)
Track 13  accurately ripped (confidence 4)  [1FB96A01]  (AR v1)
All tracks accurately ripped
End of status report
==== Log checksum ABE338DC4DE8D10F59F88275903EEFF333467BBD062DAD520F07FF0AE759831C ====

Доп. информация:
Barcode: 5 016583 121822
Matrix / Runout: CDMFN218
Issued under licence from Our Choice / Rough Trade Records Gmbh
7-ой альбом Paradise Now был создан в сотрудничестве с такими гуру, как Dieter Moebius (Cluster), Mani Neumeier (Guru Guru) и Arthur Brown и, как казалось тогда, стал последней точкой существования группы. По словам Энглера, это самый жесткий альбом из всего записанного Die Krupps. Состав группы не менялся последние пять лет. Музыку Энглер написал в Техасе вместе с Ли Алтусом, причем сделал этот всего за десять дней - ему хотелось сохранить ощущение спонтанности и непосредственности. Запись и сведение проходили в Дюссельдорфе.
Jürgen Engler - vocals, keyboards, guitars, talkbox
Lee Altus - guitars
Rüdiger Esch - bass guitar
George Lewis [disambiguation needed] - drums
Ralf Dörper - keyboards
Christopher Lietz - programming, samples
Правила, инструкции, FAQ!!!
Торрент  Добавлен [26 июн 2020, 20:27] Скачать торрент Магнет ссылка
Скачать торрент
[ Размер 17 КБ / Просмотров 8 ]

Статус
Проверен 
 
Размер  1.22 ГБ
Приватный: Нет (DHT включён)
.torrent скачан  0
 


     Отправить личное сообщение
   
Страница 1 из 1
Показать сообщения за:  Поле сортировки  
Начать новую тему Ответить на тему


Сейчас этот форум просматривают: нет зарегистрированных пользователей и гости: 0


Вы не можете начинать темы
Вы не можете отвечать на сообщения
Вы не можете редактировать свои сообщения
Вы не можете удалять свои сообщения
Вы не можете добавлять вложения

Перейти:  
cron