Начать новую тему Ответить на тему
Статистика раздачи
Размер: 471.36 МБ | Добавлен: 26 июн 2020, 17:35 | Скачали: 0
Сидеров: 0  [0 байт/сек]    Личеров: 1  [0 байт/сек]
Пред. тема | След. тема 

Автор
Сообщение

СообщениеДобавлено: 26 июн 2020, 17:35 

Ответить с цитатой 


Schramm

Nuklear Fetisch





• Жанр: Industrial Metal | EBM
• Носитель: WEB
• Год издания: 2018
• Издатель: Cleopatra Records
• Страна: Germany
• Аудиокодек: FLAC (*.flac)
• Тип рипа: tracks
• Продолжительность: 01:04:31
• Источник (спасибо): Scorpio666
• WEB релиз: bandcamp
• Наличие сканов: front

01 - Schreie (feat. ADKey) (00:03:52)
02 - Stosszeit (00:04:08)
03 - Falsch (00:04:15)
04 - Dein (00:04:48)
05 - Bizarr (00:04:17)
06 - G.A.U. (00:00:58)
07 - Kommando Sonne (00:04:16)
08 - Noch Einmal (00:05:49)
09 - Antiform (00:04:07)
10 - Elektromat (00:04:04)
11 - Burlesque (00:04:27)
12 - Schwarzes Weib (00:03:40)
13 - Dreizehn (feat. The Horrorist) (00:03:41)
14 - Sub Rosa (00:05:13)
15 - Stunde Null (00:06:51)



Код:
foobar2000 1.4 / Dynamic Range Meter 1.1.1
log date: 2018-10-02 17:55:51
--------------------------------------------------------------------------------
Analyzed: Schramm / Nuklear Fetisch
--------------------------------------------------------------------------------
DR         Peak         RMS     Duration Track
--------------------------------------------------------------------------------
DR8       -1.10 dB   -10.01 dB      3:52 01-Schreie (feat. AD:Key)
DR6       -1.10 dB    -8.94 dB      4:09 02-Stosszeit
DR9       -0.10 dB   -10.51 dB      4:15 03-Falsch
DR8       -0.70 dB   -10.19 dB      4:48 04-Dein
DR8       -0.62 dB   -10.58 dB      4:17 05-Bizarr
DR11      -5.64 dB   -20.81 dB      0:58 06-G.A.U.
DR7       -1.10 dB   -10.03 dB      4:16 07-Kommando Sonne
DR9       -0.10 dB   -10.95 dB      5:49 08-Noch Einmal
DR8       -0.60 dB   -10.13 dB      4:07 09-Antiform
DR7       -1.30 dB    -9.67 dB      4:05 10-Elektromat
DR7       -0.70 dB    -9.74 dB      4:27 11-Burlesque
DR9       -0.10 dB   -10.31 dB      3:40 12-Schwarzes Weib
DR9       -0.20 dB   -10.12 dB      3:41 13-Dreizehn (feat. The Horrorist)
DR9        0.00 dB   -10.98 dB      5:13 14-Sub Rosa
DR9       -0.10 dB   -10.40 dB      6:51 15-Stunde Null
--------------------------------------------------------------------------------
Number of tracks:  15
Official DR value: DR8
Samplerate:        44100 Hz
Channels:          2
Bits per sample:   16
Bitrate:           1003 kbps
Codec:             FLAC
================================================================================

Код:
-----------------------
DON'T MODIFY THIS FILE
-----------------------
PERFORMER: auCDtect Task Manager, ver. 1.6.0 RC1 build 1.6.0.1
Copyright (c) 2008-2010 y-soft. All rights reserved
[url=http://y-soft.org]http://y-soft.org[/url]
ANALYZER: auCDtect: CD records authenticity detector, version 0.8.2
Copyright (c) 2004 Oleg Berngardt. All rights reserved.
Copyright (c) 2004 Alexander Djourik. All rights reserved.
FILE: 15 - Stunde Null.flac
  Size: 51531695 Hash: 973C58B7FCD6952F09E1BE29E95A3446 Accuracy: -m0
  Conclusion: CDDA 100%
  Signature: 9FDE587A5CAC97CE36779B2821C7F639F8D2A469
FILE: 14 - Sub Rosa.flac
  Size: 38848025 Hash: 6EE3DB4B0672F9026A1C7CCF757B2B53 Accuracy: -m0
  Conclusion: CDDA 100%
  Signature: E7F6187DE011B51FE5BD7E4CDA28EBEEC6A60852
FILE: 13 - Dreizehn (feat. The Horrorist).flac
  Size: 28278944 Hash: 9D6CD5278FEA91468B2229A3BA66F0B1 Accuracy: -m0
  Conclusion: CDDA 100%
  Signature: DAF4BE4CCC8D37A9B4B9656E0C0D361844023E2E
FILE: 12 - Schwarzes Weib.flac
  Size: 27695826 Hash: 3AA4A14D11944D9EA64D6EDCA39FF249 Accuracy: -m0
  Conclusion: CDDA 99%
  Signature: FEC1C8DAB35CD8904E72269DB2E2BE2A9CF5D7ED
FILE: 11 - Burlesque.flac
  Size: 33718145 Hash: CA428C85157F864919020A29E98D9FD6 Accuracy: -m0
  Conclusion: CDDA 100%
  Signature: 61C3BCB2C80B4D22AA5151C5B7CDBA3359E3B8EB
FILE: 10 - Elektromat.flac
  Size: 31772628 Hash: 65CBAAC99E4D0DE6CC4315D52CBE2251 Accuracy: -m0
  Conclusion: CDDA 100%
  Signature: FBE69E9A5097D05160158858B8DFCC8D2FB45E22
FILE: 09 - Antiform.flac
  Size: 32357409 Hash: 3898C9B916FFDD3BAB70319014327546 Accuracy: -m0
  Conclusion: CDDA 100%
  Signature: A3BDE2F2F3A55F1EAB537DF3F09974D01C24EAB2
FILE: 08 - Noch Einmal.flac
  Size: 45635022 Hash: 8CCC29642AE14817B8BAA6A26F872CC0 Accuracy: -m0
  Conclusion: CDDA 100%
  Signature: D67029A8B43B28F37C536FBFF89D90147A48777A
FILE: 07 - Kommando Sonne.flac
  Size: 34149165 Hash: 591173DE67480D64B6E3F92E20E4863B Accuracy: -m0
  Conclusion: CDDA 100%
  Signature: 9CC6896D0C37226EB85912B0B7035B6BC0B6EEEC
FILE: 06 - G.A.U..flac
  Size: 4696237 Hash: 1941F980750FA43EEC847C7C15FCA00F Accuracy: -m0
  Conclusion: CDDA 54%
  Signature: 7C2454CD15D56CB7EB1DCB649DF16B4C15660ECA
FILE: 05 - Bizarr.flac
  Size: 31191356 Hash: C2AFA5DC1695DDE4B3E5736A828AE6C2 Accuracy: -m0
  Conclusion: CDDA 99%
  Signature: 004C36FC13BC82CC4DFC781C58F534D4F2277E57
FILE: 04 - Dein.flac
  Size: 35824786 Hash: 2EA8FEDAEF1AAA54A2F4F24205CF5591 Accuracy: -m0
  Conclusion: CDDA 100%
  Signature: 7CDCFBCF12A6AD4D55977F735F3CF30814C9BC6E
FILE: 03 - Falsch.flac
  Size: 31823560 Hash: 221DB9E353A05E6FC6F1204F95C5E15C Accuracy: -m0
  Conclusion: CDDA 100%
  Signature: 270B83DE92FB4082A61F6D7467021B08618D390F
FILE: 02 - Stosszeit.flac
  Size: 32281883 Hash: 0072DB49BF146FCCE8A67A115189DE27 Accuracy: -m0
  Conclusion: CDDA 100%
  Signature: 42B70909032540DBEBD7FEA5C2D628C5B17E76D5
FILE: 01 - Schreie (feat. AD-Key).flac
  Size: 30491150 Hash: 842A31316D538A83FE416FA464F227F4 Accuracy: -m0
  Conclusion: CDDA 100%
  Signature: C84FD247979F2913063994FE2922EBDD23A10368

Правила, инструкции, FAQ!!!
Торрент  Добавлен [26 июн 2020, 17:35] Скачать торрент Магнет ссылка
Скачать торрент
[ Размер 19.71 КБ / Просмотров 12 ]

Статус
Проверен 
 
Размер  471.36 МБ
Приватный: Нет (DHT включён)
.torrent скачан  0
 


     Отправить личное сообщение
   
Страница 1 из 1
Показать сообщения за:  Поле сортировки  
Начать новую тему Ответить на тему


Сейчас этот форум просматривают: нет зарегистрированных пользователей и гости: 0


Вы не можете начинать темы
Вы не можете отвечать на сообщения
Вы не можете редактировать свои сообщения
Вы не можете удалять свои сообщения
Вы не можете добавлять вложения

Перейти:  
cron