Начать новую тему Ответить на тему
Статистика раздачи
Размер: 475.56 МБ | Добавлен: 26 июн 2020, 19:42 | Скачали: 0
Сидеров: 0  [0 байт/сек]    Личеров: 0  [0 байт/сек]
Пред. тема | След. тема 

Автор
Сообщение

СообщениеДобавлено: 26 июн 2020, 19:42 

Ответить с цитатой 

Die Krupps-Odyssey Of The Mind

Жанр: Industrial/Metal
Год выпуска диска: 1996
Производитель диска: USA
Аудио кодек: APE
Тип рипа: image+.cue
Битрейт аудио: lossless
Продолжительность: 63:29
Трэклист:
1 The Last Flood 05:33
2 Isolation 04:14
3 Odyssey Of The Mind 05:05
4 Eggshell 04:51
5 Scent 04:19
6 The Final Option 04:11
7 LCD 04:17
8 Jeckyll Or Hyde 03:49
9 Metamorphosis 04:39
10 Alive 07:05
Bonus(mix):
11 Odyssey Of The Mind 05:10
12 The Final Option 05:52
13 LCD 04:16
Доп. информация: Классный альбом,рекомендую.Рип выполнен с родного диска.
Exact Audio Copy V0.99 prebeta 4 from 23. January 2008
Отчёт EAC об извлечении, выполненном 13. ноября 2008, 11:25
Die Krupps / Odyssey Of The Mind
Дисковод: HL-DT-STDVDRAM GSA-T50N Adapter: 0 ID: 1
Режим чтения : Достоверность
Использование точного потока : Да
Отключение кэша аудио : Да
Использование указателей C2 : Нет
Коррекция смещения при чтении : 667
Способность читать области Lead-in и Lead-out : Нет
Заполнение пропущенных сэмплов тишиной : Да
Удаление блоков с тишиной в начале и конце : Нет
При вычислениях CRC использовались нулевые сэмплы : Да
Интерфейс : Встроенный Win32-интерфейс для Win NT/2000
Выходной формат : Внутренние WAV-операции
Формат сэмплов : 44.100 Гц; 16 бит; стерео
TOC извлечённого CD
Трек | Старт | Длительность | Начальный сектор | Конечный сектор
---------------------------------------------------------------------
1 | 0:00.50 | 5:33.67 | 50 | 25091
2 | 5:34.42 | 4:13.23 | 25092 | 44089
3 | 9:47.65 | 5:06.40 | 44090 | 67079
4 | 14:54.30 | 4:51.67 | 67080 | 88971
5 | 19:46.22 | 4:19.25 | 88972 | 108421
6 | 24:05.47 | 4:12.03 | 108422 | 127324
7 | 28:17.50 | 4:17.20 | 127325 | 146619
8 | 32:34.70 | 3:49.10 | 146620 | 163804
9 | 36:24.05 | 4:38.55 | 163805 | 184709
10 | 41:02.60 | 7:03.25 | 184710 | 216459
11 | 48:06.10 | 5:09.62 | 216460 | 239696
12 | 53:15.72 | 5:51.33 | 239697 | 266054
13 | 59:07.30 | 4:16.67 | 266055 | 285321
Характеристики диапазона извлечения и сообщения об ошибках
Выбранный диапазон
Имя файла D:\Торрент-файлы\LOSSLESS\Die Krupps-Odyssey Of The Mind\Die Krupps - Odyssey Of The Mind.wav
Пиковый уровень 100.0 %
Качество диапазона 100.0 %
CRC копии F6FD90E4
Копирование... OK
Ошибок не произошло
AccurateRip: сводка
Трек 1 точное извлечение (доверие 5) [C46F7F5C]
Трек 2 точное извлечение (доверие 5) [CB2EC082]
Трек 3 точное извлечение (доверие 5) [0DF5E780]
Трек 4 точное извлечение (доверие 5) [59CE7194]
Трек 5 точное извлечение (доверие 5) [EA2111F9]
Трек 6 точное извлечение (доверие 5) [302D2A39]
Трек 7 точное извлечение (доверие 5) [6AD115D6]
Трек 8 точное извлечение (доверие 5) [F2FD0B6A]
Трек 9 точное извлечение (доверие 5) [FC6DAABC]
Трек 10 точное извлечение (доверие 5) [F297ED96]
Трек 11 точное извлечение (доверие 5) [E1D6382E]
Трек 12 точное извлечение (доверие 5) [9CA04DD6]
Трек 13 точное извлечение (доверие 5) [8267AEEE]
Все треки извлечены точно
Конец отчёта
Правила, инструкции, FAQ!!!
Торрент  Добавлен [26 июн 2020, 19:42] Скачать торрент Магнет ссылка
Скачать торрент
[ Размер 37.95 КБ / Просмотров 15 ]

Статус
Проверен 
 
Размер  475.56 МБ
Приватный: Нет (DHT включён)
.torrent скачан  0
 


     Отправить личное сообщение
   
Страница 1 из 1
Показать сообщения за:  Поле сортировки  
Начать новую тему Ответить на тему


Сейчас этот форум просматривают: нет зарегистрированных пользователей и гости: 0


Вы не можете начинать темы
Вы не можете отвечать на сообщения
Вы не можете редактировать свои сообщения
Вы не можете удалять свои сообщения
Вы не можете добавлять вложения

Перейти:  
cron