Начать новую тему Ответить на тему
Статистика раздачи
Размер: 1.69 ГБ | Добавлен: 26 июн 2020, 19:29 | Скачали: 0
Сидеров: 0  [0 байт/сек]    Личеров: 0  [0 байт/сек]
Пред. тема | След. тема 

Автор
Сообщение

СообщениеДобавлено: 26 июн 2020, 19:29 

Ответить с цитатой 

DIE KRUPPS
I / Rings of Steel / III: Odyssey of the Mind
Fatherland / Isolation
Страна: Germany
Жанр: Industrial / Metal
Год выпуска: 1992, 93, 95
Формат: APE (image + .cue)
Продолжительность: 4:11:36


Треклисты:
1992 – I 44:58 Our Choice / Rough Trade Rec Gmbh RTD 195-1266-2
01. Die Krupps - High Tech-Low Life (3:04)
02. Die Krupps - Metal Machine Music (4:07)
03. Die Krupps - Doppelganger (5:05)
04. Die Krupps - The Dawning Of Doom (3:51)
05. Die Krupps - Ministry Of Fear (5:01)
06. Die Krupps - One (5:00)
07. Die Krupps - Simply Say No (3:58)
08. Die Krupps - Disciples Of Disipline (4:46)
09. Die Krupps - The Power (5:22)
10. Die Krupps - Rings Of Steel (4:44)
Exact Audio Copy V0.99 prebeta 3 from 28. July 2007
Отчёт EAC об извлечении, выполненном 17. марта 2008, 23:13
Die Krupps / I
Дисковод: PIONEER DVD-RW DVR-111D Adapter: 2 ID: 1
Режим чтения : Достоверность
Использование точного потока : Да
Отключение кэша аудио : Да
Использование указателей C2 : Нет
Коррекция смещения при чтении : 48
Способность читать области Lead-in и Lead-out : Нет
Заполнение пропущенных сэмплов тишиной : Да
Удаление блоков с тишиной в начале и конце : Нет
При вычислениях CRC использовались нулевые сэмплы : Нет
Интерфейс : Встроенный Win32-интерфейс для Win NT/2000
Выходной формат : Внутренние WAV-операции
Формат сэмплов : 44.100 Гц; 16 бит; стерео
Смещение при сжатии : 2257
TOC извлечённого CD
Трек | Старт | Длительность | Начальный сектор | Конечный сектор
---------------------------------------------------------------------
1 | 0:00.00 | 3:05.30 | 0 | 13904
2 | 3:05.30 | 4:09.50 | 13905 | 32629
3 | 7:15.05 | 5:05.67 | 32630 | 55571
4 | 12:20.72 | 3:51.63 | 55572 | 72959
5 | 16:12.60 | 5:01.37 | 72960 | 95571
6 | 21:14.22 | 5:00.40 | 95572 | 118111
7 | 26:14.62 | 3:59.13 | 118112 | 136049
8 | 30:14.00 | 4:46.25 | 136050 | 157524
9 | 35:00.25 | 5:22.37 | 157525 | 181711
10 | 40:22.62 | 4:44.10 | 181712 | 203021
Характеристики диапазона извлечения и сообщения об ошибках
Выбранный диапазон
Имя файла E:\Die Krupps lossless\Die Krupps - 1992 - I\Die Krupps - I.wav
Пиковый уровень 99.0 %
Качество диапазона 99.9 %
CRC копии BB2B379F
Копирование... OK
Ошибок не произошло
AccurateRip: сводка
Трек 1 точное извлечение (доверие 5) [4AD352EA]
Трек 2 точное извлечение (доверие 5) [184BC6EE]
Трек 3 точное извлечение (доверие 5) [E8FB3209]
Трек 4 точное извлечение (доверие 5) [56A0255B]
Трек 5 точное извлечение (доверие 4) [0D2A0615]
Трек 6 точное извлечение (доверие 5) [6688DF9E]
Трек 7 точное извлечение (доверие 5) [CD1523F6]
Трек 8 точное извлечение (доверие 5) [57BAD829]
Трек 9 точное извлечение (доверие 5) [8A86A961]
Трек 10 точное извлечение (доверие 5) [15B47319]
Все треки извлечены точно
Конец отчёта



1993 – Fatherland 38:17 Cleopatra CLEO 9578-2
#77701. Die Krupps - Fatherland (The Sisters Of Mercy Remix) (4:36)
02. Die Krupps - Fatherland (Original Mix) (4:08)
03. Die Krupps - Germaniac (Live In Europe) (6:42)
04. Die Krupps - Crossfire (Original Mix) (4:43)
05. Die Krupps - Crossfire (Gunshot Remix) (4:06)
06. Die Krupps - Iron Man (Original Mix) (4:32)
07. Die Krupps - Iron Man (N-Factor Remix) (5:36)
08. Die Krupps - Shellshocked (Einsturzende Neubauten Remix) (3:54)
Exact Audio Copy V0.99 prebeta 3 from 28. July 2007
Отчёт EAC об извлечении, выполненном 17. марта 2008, 23:30
Die Krupps / Fatherland
Дисковод: PIONEER DVD-RW DVR-111D Adapter: 2 ID: 1
Режим чтения : Достоверность
Использование точного потока : Да
Отключение кэша аудио : Да
Использование указателей C2 : Нет
Коррекция смещения при чтении : 48
Способность читать области Lead-in и Lead-out : Нет
Заполнение пропущенных сэмплов тишиной : Да
Удаление блоков с тишиной в начале и конце : Нет
При вычислениях CRC использовались нулевые сэмплы : Нет
Интерфейс : Встроенный Win32-интерфейс для Win NT/2000
Выходной формат : Внутренние WAV-операции
Формат сэмплов : 44.100 Гц; 16 бит; стерео
Смещение при сжатии : 2257
TOC извлечённого CD
Трек | Старт | Длительность | Начальный сектор | Конечный сектор
---------------------------------------------------------------------
1 | 0:00.50 | 4:37.37 | 50 | 20861
2 | 4:38.12 | 4:10.03 | 20862 | 39614
3 | 8:48.15 | 6:43.40 | 39615 | 69879
4 | 15:31.55 | 4:44.00 | 69880 | 91179
5 | 20:15.55 | 4:07.60 | 91180 | 109764
6 | 24:23.40 | 4:32.62 | 109765 | 130226
7 | 28:56.27 | 5:37.28 | 130227 | 155529
8 | 34:33.55 | 3:54.17 | 155530 | 173096
Характеристики диапазона извлечения и сообщения об ошибках
Выбранный диапазон
Имя файла E:\Die Krupps lossless\Die Krupps - 1995 - Fatherland\Die Krupps - Fatherland.wav
Пиковый уровень 99.0 %
Качество диапазона 100.0 %
CRC копии E9BBDB3D
Копирование... OK
Ошибок не произошло
AccurateRip: сводка
Трек 1 точное извлечение (доверие 1) [E9FD2505]
Трек 2 точное извлечение (доверие 1) [8BFA660E]
Трек 3 точное извлечение (доверие 1) [08A4A2EA]
Трек 4 точное извлечение (доверие 1) [14D4A922]
Трек 5 точное извлечение (доверие 1) [DC21ED92]
Трек 6 точное извлечение (доверие 1) [97D77336]
Трек 7 точное извлечение (доверие 1) [EB64A5E2]
Трек 8 точное извлечение (доверие 1) [18F04DDD]
Все треки извлечены точно
Конец отчёта



1995 – Rings of Steel 1:14:31 Cleopatra CLEO 9549-2
#77701. Die Krupps - Bloodsuckers (Die Arzte Remix) (5:37)
02. Die Krupps - To The Hilt (Clawfinger Remix) (3:39)
03. Die Krupps - Crossfire (Faith No More Remix) (4:46)
04. Die Krupps - Language Of Reality (Nine Inch Nails Remix) (4:41)
05. Die Krupps - Fatherland (Sisters Of Mercy & Cassandra Complex Remix) (4:36)
06. Die Krupps - Worst Case Scenario (Gunshot Remix) (3:34)
07. Die Krupps - Paradise Of Sin (Revolting Cocks Remix) (4:01)
08. Die Krupps - Iron Man (KMFDM Remix) (4:49)
09. Die Krupps - Inside Out (Carcass Remix) (5:10)
10. Die Krupps - New Temptation (Einsturzende Neubauten Remix) (3:35)
11. Die Krupps - Metal Machine Music (5:14)
12. Die Krupps - Shellshocked (3:35)
13. Die Krupps - Bloodsuckers (Biohazard Remix) (4:03)
14. Die Krupps - Language Of Reality (4:08)
15. Die Krupps - Worst Case Scenario (4:18)
16. Die Krupps - To The Hilt (4:47)
17. Die Krupps - New Temptation (3:58)
Exact Audio Copy V0.99 prebeta 3 from 28. July 2007
Отчёт EAC об извлечении, выполненном 17. марта 2008, 23:51
Die Krupps / Rings Of Steel
Дисковод: PIONEER DVD-RW DVR-111D Adapter: 2 ID: 1
Режим чтения : Достоверность
Использование точного потока : Да
Отключение кэша аудио : Да
Использование указателей C2 : Нет
Коррекция смещения при чтении : 48
Способность читать области Lead-in и Lead-out : Нет
Заполнение пропущенных сэмплов тишиной : Да
Удаление блоков с тишиной в начале и конце : Нет
При вычислениях CRC использовались нулевые сэмплы : Нет
Интерфейс : Встроенный Win32-интерфейс для Win NT/2000
Выходной формат : Внутренние WAV-операции
Формат сэмплов : 44.100 Гц; 16 бит; стерео
Смещение при сжатии : 2257
TOC извлечённого CD
Трек | Старт | Длительность | Начальный сектор | Конечный сектор
---------------------------------------------------------------------
1 | 0:00.50 | 5:37.35 | 50 | 25359
2 | 5:38.10 | 3:39.57 | 25360 | 41841
3 | 9:17.67 | 4:46.58 | 41842 | 63349
4 | 14:04.50 | 4:41.62 | 63350 | 84486
5 | 18:46.37 | 4:37.35 | 84487 | 105296
6 | 23:23.72 | 3:35.40 | 105297 | 121461
7 | 26:59.37 | 4:01.35 | 121462 | 139571
8 | 31:00.72 | 4:50.28 | 139572 | 161349
9 | 35:51.25 | 5:11.22 | 161350 | 184696
10 | 41:02.47 | 3:36.65 | 184697 | 200961
11 | 44:39.37 | 5:15.15 | 200962 | 224601
12 | 49:54.52 | 3:36.13 | 224602 | 240814
13 | 53:30.65 | 4:03.42 | 240815 | 259081
14 | 57:34.32 | 4:09.20 | 259082 | 277776
15 | 61:43.52 | 4:18.55 | 277777 | 297181
16 | 66:02.32 | 4:47.58 | 297182 | 318764
17 | 70:50.15 | 3:57.67 | 318765 | 336606
Характеристики диапазона извлечения и сообщения об ошибках
Выбранный диапазон
Имя файла E:\Die Krupps lossless\Die Krupps - 1995 - Rings Of Steel\Die Krupps - Rings Of Steel.wav
Пиковый уровень 100.0 %
Качество диапазона 100.0 %
CRC копии A2055BB4
Копирование... OK
Ошибок не произошло
AccurateRip: сводка
Трек 1 точное извлечение (доверие 7) [90234539]
Трек 2 точное извлечение (доверие 7) [49E5879A]
Трек 3 точное извлечение (доверие 7) [9861E644]
Трек 4 точное извлечение (доверие 7) [2E7B307E]
Трек 5 точное извлечение (доверие 7) [03357F1B]
Трек 6 точное извлечение (доверие 7) [9680902E]
Трек 7 точное извлечение (доверие 7) [0D1E0AFC]
Трек 8 точное извлечение (доверие 7) [A7C17834]
Трек 9 точное извлечение (доверие 7) [D04A241D]
Трек 10 точное извлечение (доверие 6) [0B6D2479]
Трек 11 точное извлечение (доверие 6) [E53E8FAD]
Трек 12 точное извлечение (доверие 7) [6C3DFC29]
Трек 13 точное извлечение (доверие 7) [14258699]
Трек 14 точное извлечение (доверие 6) [B747121F]
Трек 15 точное извлечение (доверие 5) [2D3F09BA]
Трек 16 точное извлечение (доверие 6) [C4AB7369]
Трек 17 точное извлечение (доверие 6) [93633F03]
Все треки извлечены точно
Конец отчёта



1995 – III: Odyssey of the Mind 1:03:15 Our Choice / Rough Trade Rec Gmbh RTD 195-3303-2
#77701. Die Krupps - The Last Flood (5:33)
02. Die Krupps - Isolation (4:12)
03. Die Krupps - Odyssey Of The Mind (5:05)
04. Die Krupps - Eggshell (4:51)
05. Die Krupps - Scent (4:20)
06. Die Krupps - The Final Option (4:12)
07. Die Krupps - LCD (4:17)
08. Die Krupps - Jeckyll Or Hyde (3:49)
09. Die Krupps - Metamorphosis (4:38)
10. Die Krupps - Alive (7:02)
11. Die Krupps - Odyssey Of The Mind (The Sisters Of Mercy Deep Space Remix) (5:09)
12. Die Krupps - The Final Option (Prong Crucified Remix) (5:50)
13. Die Krupps - LCD (Laether Strip Klute Remix) (4:17)
Exact Audio Copy V0.99 prebeta 3 from 28. July 2007
Отчёт EAC об извлечении, выполненном 18. марта 2008, 0:12
Die Krupps / Odyssey Of The Mind
Дисковод: PIONEER DVD-RW DVR-111D Adapter: 2 ID: 1
Режим чтения : Достоверность
Использование точного потока : Да
Отключение кэша аудио : Да
Использование указателей C2 : Нет
Коррекция смещения при чтении : 48
Способность читать области Lead-in и Lead-out : Нет
Заполнение пропущенных сэмплов тишиной : Да
Удаление блоков с тишиной в начале и конце : Нет
При вычислениях CRC использовались нулевые сэмплы : Нет
Интерфейс : Встроенный Win32-интерфейс для Win NT/2000
Выходной формат : Внутренние WAV-операции
Формат сэмплов : 44.100 Гц; 16 бит; стерео
Смещение при сжатии : 2257
TOC извлечённого CD
Трек | Старт | Длительность | Начальный сектор | Конечный сектор
---------------------------------------------------------------------
1 | 0:00.00 | 5:33.10 | 0 | 24984
2 | 5:33.10 | 4:14.32 | 24985 | 44066
3 | 9:47.42 | 5:05.03 | 44067 | 66944
4 | 14:52.45 | 4:51.09 | 66945 | 88778
5 | 19:43.54 | 4:19.63 | 88779 | 108266
6 | 24:03.42 | 4:11.58 | 108267 | 127149
7 | 28:15.25 | 4:17.12 | 127150 | 146436
8 | 32:32.37 | 3:49.10 | 146437 | 163621
9 | 36:21.47 | 4:39.55 | 163622 | 184601
10 | 41:01.27 | 7:05.10 | 184602 | 216486
11 | 48:06.37 | 5:10.05 | 216487 | 239741
12 | 53:16.42 | 5:52.30 | 239742 | 266171
13 | 59:08.72 | 4:16.13 | 266172 | 285384
Характеристики диапазона извлечения и сообщения об ошибках
Выбранный диапазон
Имя файла E:\Die Krupps lossless\Die Krupps - 1996 - Odyssey Of The Mind\Die Krupps - Odyssey Of The Mind.wav
Пиковый уровень 97.7 %
Качество диапазона 99.9 %
CRC копии 9A872AC8
Копирование... OK
Ошибок не произошло
AccurateRip: сводка
Трек 1 нет в базе данных
Трек 2 нет в базе данных
Трек 3 нет в базе данных
Трек 4 нет в базе данных
Трек 5 нет в базе данных
Трек 6 нет в базе данных
Трек 7 нет в базе данных
Трек 8 нет в базе данных
Трек 9 нет в базе данных
Трек 10 нет в базе данных
Трек 11 нет в базе данных
Трек 12 нет в базе данных
Трек 13 нет в базе данных
Ни одного трека нет в базе AccurateRip
Конец отчёта



1995 – Isolation 29:44 Cleopatra CLP 9730-2
#77701. Die Krupps - Isolation (Edit) (3:46)
02. Die Krupps - Isolation (Luc Van Acker-Mix) (4:01)
03. Die Krupps - Scent (Club Version) (4:26)
04. Die Krupps - Isolation (Clawfinger-Mix) (3:43)
05. Die Krupps - The Last Flood (Live) (5:30)
06. Die Krupps - Isolation (Live) (4:15)
07. Die Krupps - The Final Option (S.P.Q.R-Mix) (4:03)
Exact Audio Copy V0.99 prebeta 3 from 28. July 2007
Отчёт EAC об извлечении, выполненном 18. марта 2008, 0:29
Die Krupps / Isolation
Дисковод: PIONEER DVD-RW DVR-111D Adapter: 2 ID: 1
Режим чтения : Достоверность
Использование точного потока : Да
Отключение кэша аудио : Да
Использование указателей C2 : Нет
Коррекция смещения при чтении : 48
Способность читать области Lead-in и Lead-out : Нет
Заполнение пропущенных сэмплов тишиной : Да
Удаление блоков с тишиной в начале и конце : Нет
При вычислениях CRC использовались нулевые сэмплы : Нет
Интерфейс : Встроенный Win32-интерфейс для Win NT/2000
Выходной формат : Внутренние WAV-операции
Формат сэмплов : 44.100 Гц; 16 бит; стерео
Смещение при сжатии : 2257
TOC извлечённого CD
Трек | Старт | Длительность | Начальный сектор | Конечный сектор
---------------------------------------------------------------------
1 | 0:00.50 | 3:45.55 | 50 | 16979
2 | 3:46.30 | 4:02.07 | 16980 | 35136
3 | 7:48.37 | 4:27.38 | 35137 | 55199
4 | 12:16.00 | 3:44.37 | 55200 | 72036
5 | 16:00.37 | 5:30.03 | 72037 | 96789
6 | 21:30.40 | 4:16.42 | 96790 | 116031
7 | 25:47.07 | 4:03.10 | 116032 | 134266
Характеристики диапазона извлечения и сообщения об ошибках
Выбранный диапазон
Имя файла E:\Die Krupps lossless\Die Krupps - 1996 - Isolation\Die Krupps - Isolation.wav
Пиковый уровень 100.0 %
Качество диапазона 100.0 %
CRC копии 798D34CE
Копирование... OK
Ошибок не произошло
AccurateRip: сводка
Трек 1 нет в базе данных
Трек 2 нет в базе данных
Трек 3 нет в базе данных
Трек 4 нет в базе данных
Трек 5 нет в базе данных
Трек 6 нет в базе данных
Трек 7 нет в базе данных
Ни одного трека нет в базе AccurateRip
Конец отчёта



Дискография:
Albums:
Stahlwerksinfonie (1981) https://rutracker.org/forum/viewtopic.php?t=738569
Volle Kraft Voraus (1982) https://rutracker.org/forum/viewtopic.php?t=628209
Entering The Arena (1985)
I (1992)
II - the Final Option (1993) https://rutracker.org/forum/viewtopic.php?t=738489
III - Odyssey of the mind (1995)
Paradise Now (1997) https://rutracker.org/forum/viewtopic.php?t=628215
Compilations
The Final Remixes (1994) https://rutracker.org/forum/viewtopic.php?t=1023492
Rings Of Steel (1995)
Metalmorphosis of Die Krupps (1997)
Foundation (1997)
Too Much History Vol. I & II (2007) https://rutracker.org/forum/viewtopic.php?t=1019541
Singles and EP's
Wahre Arbeit, Wahrer Lohn (1981)
Goldfinger (1982)
Machineries of Joy (1989)
Germaniac (1990)
Metal Machine Music (1992)
The Power (1992)
Tribute to Metallica (1992) https://rutracker.org/forum/viewtopic.php?t=742541
Fatherland (1993)
To the Hilt (1994) https://rutracker.org/forum/viewtopic.php?t=1027116
Crossfire (1994)
Bloodsuckers (1994) https://rutracker.org/forum/viewtopic.php?t=628213
Isolation (1995)
Scent (1995)
Remix Wars Strike 2: Die Krupps vs. Front Line Assembly (1996)
Fire (1997)
Rise Up (1997) https://rutracker.org/forum/viewtopic.php?t=1027116
Black Beauty White Heat (1997) https://rutracker.org/forum/viewtopic.php?t=1027116
Критики всего мира согласятся с тем, что это имя определённо стоит в ряду первооткрывателей электронной музыки, соседствуя с такими легендарными группами, как Kraftwerk и Einsturzende Neubauten. Die Krupps принадлежит к небольшому числу групп-пионеров, которые оказали огромное влияние на electro-industrial музыку.
Наравне с EINSTURZENDE NEUBAUTEN, Die Krupps стали одной из первых электро-индустриальных команд, к которым проявили живой интерес почитатели и исполнители тяжелой музыки. Именно они, Die Krupps и спровоцировали взаимопроникновение электронного и металлического жанров музыки, записав в 1992 году целый мини-альбом своих электро-индустриальных версий классических песен Metallica. И то, что с их стороны было развлечением, металлисты восприняли весьма серьезно и уже тогда начали предпринимать первые попытки по внедрению элементов электро-индустриального звучания в традиционный хэви-металл. Основатель Die Krupps Юрген Энглep (Jurgen Engler) начал свою карьеру в одной из первых немецких панк-групп (!) MALE, где играл на гитаре и пел в течение четырех лет, с 76-го по 80-й. После распада этой формации, Jurgen экспериментирует с музыкальным звучанием в новом коллективе, который теперь по праву можно назвать первой версией нынешнего состава, с клавишными и железками. Эти попытки принято расценивать как предвестник электронной, индустриально ориентированной музыки, в современном понимании. Nitzer Ebb и Front 242 снисходительно отмечают, что попали под влияние Die Krupps , отголоски их звучания прослеживаются даже в творениях Depeche Mode! Die Krupps создали новый ориентир в немецкой поп-культуре, соединив историю Германии с новыми технологиями в музыке. Jurgen Engler провокационно называет группу по имени немецкого индустриального гиганта, сталелитейного концерна KRUPPS, породившего, как принято считать, военную нацистскую машину.
Дебютный альбом Die Krupps “Steelworksymphony” увидел свет в 1981 году и был признан пластинкой недели в британском еженедельнике ''New Musical Express''.
Следующий релиз, “Wahre Arbeit - Wahrer Lohn“. Попытка превратить заводской цех в танцплощадку, мобилизовав ритм работы, превращая железный лязг станков с примесью электронного звучания в эффектный фон для всего альбома. Пластинка получает звание релиза недели в NME. Как раз в это время Jurgen внедряет новый инструмент, названный Steel-o-phone, который добавляет металлическое присутствие в музыкальный ряд ударных и клавишных. Последовавший за этим альбом “Volle Kraft Voraus” (Полный вперед) (1982), становится классикой в жанре EBM. Ralf Dorper, приглашенный в группу с самого начала работы над пластинкой, до этого Ralf работал в проекте Propaganda под маркой ZTT, возглавляемом Тревором Хорном (Trevor Horn). В 1983 Die Krupps выпускает две абсолютно новые версии Wahre Arbeit Wahrer Lohn и Goldfinger для британского рынка. Этими релизами Die Krupps зарекомендовала себя как электро-танцевальная группа. Надо сказать, этот ярлык будет преследовать их многие годы. Следущим альбомом становится “Entering The Arena”, который был спродюсирован Zeus B. Held (известным по работе с Dead or Alive и Nina Hagen) и эта пластинка, как нельзя кстати отвечает уже сложившемуся у группы стилю. В период с 86-го по 89-й, Jurgen Engler сосредоточился на создании собственной торговой марки и записывающей студии ATOM H совместно со своим партнером Крисом Лайцем (Chris Leits). Под этой маркой выходили альбомы музыкантов, играющих speed/trash metal и подобных стилях. Позже, увлечение более жёсткой музыкой станет весьма заметным и будет решающим в творчестве Die Krupps . В 1990-м, сингл Machineries of Joy вышел на Mute/Geffen Records. На этот раз в его записи принял участие Rudiger Esch. Этот релиз стал результатом совместных усилий группы с Nitzer Ebb и ознаменовал очередную победу в мировых клубах, достигнув 25-й позиции в танцевальном Top 100 Billboard. А в 1991-м выходит и сборник лучших вещей команды “Metall Maschinen Music 91-81”.
ATOM H специализировалась на выпуске пластинок спид/трэш- и crossover-групп, благодаря чему Энглер с товарищами сделали еще один шаг по направлению к тяжелому металлу. Свой модернизированный стиль Die Krupps окрестили как ''Metal Machine Music'', выпустив в начале 92-го сингл с таким названием, на трек с которого был отснят видеоклип - Metal Machine Music. За этим последовал тур по Германии, переросший в общеевропейский (Англия, Бельгия, Венгрия, Австрия, Швейцария, Голландия, Скандинавский полуостров). В конце того же года вышел и тот самый ''металликовский'' трибьют, с пятью композициями (чуть раньше группа таким же образом извратилась над еще одной композицией Metallica - ''One'') на борту, ставший ''платиновым'', благодаря которому Die Krupps и получили широкую известность. Все композиции этого «посвящения-шедевра» исполнены исключительно с использованием клавишных и сэмплеров. Песни Metallica Enter Sandman, Nothing Else Matters, и One приобрели новое звучание, а John Fryer (работавший с такими грандами, как Nine Inch Nails, Jesus Jones, Depeche Mode), продюссировавший эту эпохальную работу, помогает группе в безукоризненном, с технической точки зрения, качестве микширования и записи. Изобретательность Энглера и Ко отметили даже сами ''металликовцы'': Ларс Ульрих (Lars Ulrich) лично выразил ему свой восторг, заявив, что Die Krupps открыли для него новые горизонты в музыке. Одновременно с этим Ralf Dorper, уже не скованный к этому времени обязательствами с Propaganda, смог заняться своей работой в Die Krupps с полной отдачей. Несмотря на то, что деятельность Die Krupps в 80-х имела узконаправленный характер, этого было достаточно, чтобы дать почву для появления в будущем таких коллективов, как Nitzer Ebb, Front 242, а еще позже - RAMMSTEIN. Альбом 1982 года ''Volle Kraft Voraus'', например, и по сей день считается классикой электронной музыки. Сближение с миром тяжелого рока Юрген Энглер еще раз подтвердил летом 1993 года, когда после выступления на летних фестивалей «завербовал» в Die Krupps двух участников американской группы HEATHEN - Даррена Минтера (Darren Minter) и Ли Альтуса (Lee Altus). Последний принял активное участие в создании самого успешного альбом Die Krupps ''II The Final Option'', выпущенного в конце того же года. Здесь уже было намешано все, что только возможно - индастриал, металл, техно, готика, хип-хоп и так далее. Массы с восторгом встретили этот альбом, чему способствовали целых четыре сингла и видеоклип ''То The Hilt'', не вылезавший из горячей десятки MTV. Кульминацией этого серьезного успеха стало выступление группы на ежегодном фестивале ''Dynamo'' в Голландии. С этого момента имя Die Krupps стало с завидной регулярностью появлятся не только в ''электронно-индустриальной'' прессе, но и в строго ''металлических'' изданиях типа ''Rock Hard'' или ''Metal Hammer''. Начиная с 90-х, альбомы группы - постоянные гости чартов, в частности "A Tribute To Metallica", "II - The Final Option" и "III - Odyssey Of The Mind" достигали: 18-й позиции в Германии, 23-й в Швеции, 25-й в Австрии, 45-й в Швейцарии, 90-й в Бельгии, а в Эстонии даже попали на высшую, первую строчку!
В предпринятой через год студийной попытке "Odyssey of the Mind" (1995) Энглер и Дорпер еще дальше отошли от своих электронных истоков. Коллекция ремиксов на треки из "Odyssey of the Mind" получила название "Isolation". Она вышла в 1996 году и включала также несколько концертных треков. В том же, 1996-м Die Krupps подготовили компиляцию "Metalmorphosis of Die Krupps '81-92", которая включала 15 самых разных вещей - от демо-версий и ремиксов, до каверов других групп и вступлений к некоторым композициям. Так же в 1996г. Группа выпустила “Remix Wars Strike 2: Die Krupps vs. Front Line Assembly” (1996). Таким образом Die Krupps «обработали» творчество ещё одних мастеров электронной музыки – Front Line Assembly. Та же участь постигла Prodigy в 1997г с песней Fire и Nine Inch Nails в 2000 г. Die Krupps выпустил альбом под названием – “A tribute to NIN.” Еще в 1994 году Юнгер Энглер женился и переехал в Америку. С тех пор он жил и работал в Остине, штат Техас, где оказался довольно востребованным продюсером. Последним официальным пополнением дискографии Die Krupps стал лонг-плей 1997-го года "Paradise Now", который был создан в кооперации с такими музыкантами, как Dieter Moebius (Cluster), Mani Neumeier (Guru Guru) и Arthur Brown и, как казалось тогда, стал финальной точкой существования группы. По словам Энглера, это самый жесткий альбом из всего записанного Die Krupps . Состав группы не менялся последние пять лет. Музыку Энглер написал в Техасе вместе с Ли Алтусом, причем сделал этот всего за десять дней - ему хотелось сохранить ощущение спонтанности и непосредственности. Запись и сведение проходили в Дюссельдорфе. За эти годы Энглер успел поработать с массой коллективов - От хардкорщиков Biohazard до хэви-металлической DORO, не говоря уже о своих коллегах по жанру. Правда, сами Die Krupps , между тем, себя окончательно изжили и Юрген, не долго думая, распустил группу.



P.S. Не уходите сразу с раздачи, и не стесняйтесь сказать спасибо…Some old shit by
Правила, инструкции, FAQ!!!
Торрент  Добавлен [26 июн 2020, 19:29] Скачать торрент Магнет ссылка
Скачать торрент
[ Размер 18.92 КБ / Просмотров 13 ]

Статус
Проверен 
 
Размер  1.69 ГБ
Приватный: Нет (DHT включён)
.torrent скачан  0
 


     Отправить личное сообщение
   
Страница 1 из 1
Показать сообщения за:  Поле сортировки  
Начать новую тему Ответить на тему


Сейчас этот форум просматривают: нет зарегистрированных пользователей и гости: 0


Вы не можете начинать темы
Вы не можете отвечать на сообщения
Вы не можете редактировать свои сообщения
Вы не можете удалять свои сообщения
Вы не можете добавлять вложения

Перейти:  
cron