Начать новую тему Ответить на тему
Статистика раздачи
Размер: 371.94 МБ | Добавлен: 26 июн 2020, 21:10 | Скачали: 1
Сидеров: 0  [0 байт/сек]    Личеров: 0  [0 байт/сек]
Пред. тема | След. тема 

Автор
Сообщение

СообщениеДобавлено: 26 июн 2020, 21:10 

Ответить с цитатой 

Psyclon nine • Order of the shadow: act I



Жанр: Industrial metal, dark electro | Носитель: CD | Год: 2013 | Издатель: Metropolis records | Номер по каталогу: MET 888 | Страна: США | Аудиокодек: FLAC | Тип рипа: image .cue | Битрейт: lossless | Продолжительность: 0:50:48 | Источник : СПАМ | Сканы: по сути нет


Треклист:
01. [Act I] Consecration 00:46
02. Shadows Unveiled 05:07
03. Suffer Well 05:23
04. Glamour Through Debris 04:24
05. Come And See 01:32
06. Afferte Mihi Mortem 04:09
07. Use Once And Destroy 04:03
08. Remains Of Eden II 05:31
09. But, With A Whimper 01:26
10. Order Of The Shadow [The Heretic Awakened] 06:10
11. Take My Hand While I Take My Life 04:51
12. [Act I] Penance 01:22
13. The Saint And The Valentine 05:39
Код:
Exact Audio Copy V1.0 beta 3 from 29. August 2011
Отчёт EAC об извлечении, выполненном 23. ноября 2013, 14:51
Psyclon Nine / [Order Of The Shadow Act I]
Дисковод: PIONEER DVD-RW  DVR-XD10   Adapter: 1  ID: 0
Режим чтения                 : Достоверность
Использование точного потока : Да
Отключение кэша аудио        : Да
Использование указателей C2  : Нет
Коррекция смещения при чтении                     : 96
Способность читать области Lead-in и Lead-out     : Нет
Заполнение пропущенных сэмплов тишиной            : Да
Удаление блоков с тишиной в начале и конце        : Нет
При вычислениях CRC использовались нулевые сэмплы : Да
Интерфейс                                         : Встроенный Win32-интерфейс для Win NT/2000
Выходной формат          : Пользовательский кодировщик
Выбранный битрейт        : 1024 kBit/s
Качество                 : Высокий
Добавление ID3-тега      : Нет
Утилита сжатия           : C:\Program Files (x86)\Exact Audio Copy\FLAC\FLAC.EXE
Дополнительные параметры : -V -8 -T "Date=%year%" -T "Genre=%genre%" %source%
TOC извлечённого CD
     Трек |   Старт  | Длительность | Начальный сектор | Конечный сектор
    ---------------------------------------------------------------------
       1  |  0:00.00 |    0:46.26   |           0      |       3475
       2  |  0:46.26 |    5:10.36   |        3476      |      26761
       3  |  5:56.62 |    5:25.24   |       26762      |      51160
       4  | 11:22.11 |    4:26.09   |       51161      |      71119
       5  | 15:48.20 |    1:36.09   |       71120      |      78328
       6  | 17:24.29 |    4:12.45   |       78329      |      97273
       7  | 21:36.74 |    4:05.40   |       97274      |     115688
       8  | 25:42.39 |    5:33.29   |      115689      |     140692
       9  | 31:15.68 |    1:29.00   |      140693      |     147367
      10  | 32:44.68 |    6:10.56   |      147368      |     175173
      11  | 38:55.49 |    4:51.11   |      175174      |     197009
      12  | 43:46.60 |    1:22.00   |      197010      |     203159
      13  | 45:08.60 |    5:39.31   |      203160      |     228615
Характеристики диапазона извлечения и сообщения об ошибках
Выбранный диапазон
     Имя файла C:\Users\HP\Music\Psyclon Nine - [Order Of The Shadow Act I].wav
     Пиковый уровень 97.7 %
     Скорость извлечения 4.1 X
     Качество диапазона 100.0 %
     CRC теста 958AA901
     CRC копии 958AA901
     Копирование... OK
Ошибок не произошло
AccurateRip: сводка
Трек  1  отсутствует в базе данных
Трек  2  отсутствует в базе данных
Трек  3  отсутствует в базе данных
Трек  4  отсутствует в базе данных
Трек  5  отсутствует в базе данных
Трек  6  отсутствует в базе данных
Трек  7  отсутствует в базе данных
Трек  8  отсутствует в базе данных
Трек  9  отсутствует в базе данных
Трек 10  отсутствует в базе данных
Трек 11  отсутствует в базе данных
Трек 12  отсутствует в базе данных
Трек 13  отсутствует в базе данных
Ни одного трека нет в базе AccurateRip
Конец отчёта
---- CUETools DB Plugin V2.1.4
[CTDB TOCID: X94xzviIQT0248NaH.Fs0.QheHk-] found
Submit result: X94xzviIQT0248NaH.Fs0.QheHk- has been confirmed
Track | CTDB Status
  1   | (2/2) Accurately ripped
  2   | (2/2) Accurately ripped
  3   | (2/2) Accurately ripped
  4   | (2/2) Accurately ripped
  5   | (2/2) Accurately ripped
  6   | (2/2) Accurately ripped
  7   | (2/2) Accurately ripped
  8   | (2/2) Accurately ripped
  9   | (2/2) Accurately ripped
 10   | (2/2) Accurately ripped
 11   | (2/2) Accurately ripped
 12   | (2/2) Accurately ripped
 13   | (2/2) Accurately ripped
==== Контрольная сумма отчёта D9FF3AF280C42C859A328594C532CE26F1DDB93D743DD518B9DB7715BB4CD23F ====
Код:
REM GENRE "Dark Electro"
REM DATE 2013
REM DISCID C30BE80D
REM COMMENT "ExactAudioCopy v1.0b3"
CATALOG 0782388088824
PERFORMER "Psyclon Nine"
TITLE "[Order Of The Shadow Act I]"
FILE "Psyclon Nine - [Order Of The Shadow Act I].flac" WAVE
  TRACK 01 AUDIO
    TITLE "[Act I] Consecration"
    PERFORMER "Psyclon Nine"
    ISRC US57M1388801
    INDEX 01 00:00:00
  TRACK 02 AUDIO
    TITLE "Shadows Unveiled"
    PERFORMER "Psyclon Nine"
    ISRC US57M1388802
    INDEX 01 00:46:26
  TRACK 03 AUDIO
    TITLE "Suffer Well"
    PERFORMER "Psyclon Nine"
    ISRC US57M1388803
    INDEX 00 05:54:18
    INDEX 01 05:56:62
  TRACK 04 AUDIO
    TITLE "Glamour Through Debris"
    PERFORMER "Psyclon Nine"
    ISRC US57M1388804
    INDEX 00 11:20:37
    INDEX 01 11:22:11
  TRACK 05 AUDIO
    TITLE "Come And See"
    PERFORMER "Psyclon Nine"
    ISRC US57M1388805
    INDEX 00 15:47:06
    INDEX 01 15:48:20
  TRACK 06 AUDIO
    TITLE "Afferte Mihi Mortem"
    PERFORMER "Psyclon Nine"
    ISRC US57M1388806
    INDEX 00 17:21:00
    INDEX 01 17:24:29
  TRACK 07 AUDIO
    TITLE "Use Once And Destroy"
    PERFORMER "Psyclon Nine"
    ISRC US57M1388807
    INDEX 00 21:34:15
    INDEX 01 21:36:74
  TRACK 08 AUDIO
    TITLE "Remains Of Eden II"
    PERFORMER "Psyclon Nine"
    ISRC US57M1388808
    INDEX 00 25:40:10
    INDEX 01 25:42:39
  TRACK 09 AUDIO
    TITLE "But, With A Whimper"
    PERFORMER "Psyclon Nine"
    ISRC US57M1388809
    INDEX 00 31:14:25
    INDEX 01 31:15:68
  TRACK 10 AUDIO
    TITLE "Order Of The Shadow [The Heretic Awakened]"
    PERFORMER "Psyclon Nine"
    ISRC US57M1388810
    INDEX 00 32:42:38
    INDEX 01 32:44:68
  TRACK 11 AUDIO
    TITLE "Take My Hand While I Take My Life"
    PERFORMER "Psyclon Nine"
    ISRC US57M1388811
    INDEX 00 38:55:04
    INDEX 01 38:55:49
  TRACK 12 AUDIO
    TITLE "[Act I] Penance"
    PERFORMER "Psyclon Nine"
    ISRC US57M1388812
    INDEX 01 43:46:60
  TRACK 13 AUDIO
    TITLE "The Saint And The Valentine"
    PERFORMER "Psyclon Nine"
    ISRC US57M1388813
    INDEX 01 45:08:60
Код:
-----------------------
DON'T MODIFY THIS FILE
-----------------------
PERFORMER: auCDtect Task Manager, ver. 1.5.1RC4 build 1.5.1.5
Copyright (c) 2008-2010 y-soft. All rights reserved
[url=http://y-soft.org]http://y-soft.org[/url]
ANALYZER: auCDtect: CD records authenticity detector, version 0.8.2
Copyright (c) 2004 Oleg Berngardt. All rights reserved.
Copyright (c) 2004 Alexander Djourik. All rights reserved.
FILE: Psyclon Nine - [Order Of The Shadow Act I].flac
  Size: 388871715 Hash: 713FC7C71988588CEDA95572877448EE Accuracy: -m0
  Conclusion: CDDA 99%
  Signature: 2B5C8DE3B2125C2F5FD2A4843CB256D81D99EF88
Правила, инструкции, FAQ!!!
Торрент  Добавлен [26 июн 2020, 21:10] Скачать торрент Магнет ссылка
Скачать торрент
[ Размер 15.61 КБ / Просмотров 14 ]

Статус
Проверен 
 
Размер  371.94 МБ
Приватный: Нет (DHT включён)
.torrent скачан  1
 


     Отправить личное сообщение
   
Страница 1 из 1
Показать сообщения за:  Поле сортировки  
Начать новую тему Ответить на тему


Сейчас этот форум просматривают: нет зарегистрированных пользователей и гости: 0


Вы не можете начинать темы
Вы не можете отвечать на сообщения
Вы не можете редактировать свои сообщения
Вы не можете удалять свои сообщения
Вы не можете добавлять вложения

Перейти:  
cron