Начать новую тему Ответить на тему
Статистика раздачи
Размер: 409.34 МБ | Добавлен: 26 июн 2020, 20:45 | Скачали: 0
Сидеров: 0  [0 байт/сек]    Личеров: 0  [0 байт/сек]
Пред. тема | След. тема 

Автор
Сообщение

СообщениеДобавлено: 26 июн 2020, 20:45 

Ответить с цитатой 

Luxt - Disrepair

Жанр: Industrial
Страна-производитель диска: USA
Год издания диска: 1997
Издатель (лейбл): 21st Circuitry
Номер по каталогу: 21C.CD22
Страна: USA
Аудиокодек: FLAC (*.flac)
Тип рипа: tracks+.cue
Битрейт аудио: lossless
Продолжительность: 1:07:11.293
Источник (релизер): waffles.fm
Наличие сканов в содержимом раздачи: нет

Треклист:
01. This Ugly 3:16
02. Megaplex 4:59
03. World Of Hurt 4:49
04. Hate Song 5:13
05. Not Of My Kind 4:56
06. Devil's Advocate 4:16
07. Intent 5:27
08. Turbulence 3:35
09. Death 3:28
10. Noxxul 3:22
11. Darker Times 4:43
12. Locust 6:01
13. Troll 3:31
14. Winter Kills 4:16
15. Devil's Advocate (Lo-Corps Mix) 5:20
Лучшая ваша благодарность за раздачу - отзывы об альбоме!
This torrent is approved by the Waffle Irons with high confidence of being a perfect rip.

Код:
Exact Audio Copy V1.0 beta 1 from 15. November 2010
EAC extraction logfile from 26. April 2011, 7:07
Luxt / Disrepair
Used drive  : LITE-ON DVDRW LH-20A1H   Adapter: 0  ID: 0
Read mode               : Secure
Utilize accurate stream : Yes
Defeat audio cache      : Yes
Make use of C2 pointers : No
Read offset correction                      : 6
Overread into Lead-In and Lead-Out          : No
Fill up missing offset samples with silence : Yes
Delete leading and trailing silent blocks   : No
Null samples used in CRC calculations       : Yes
Used interface                              : Native Win32 interface for Win NT & 2000
Gap handling                                : Appended to previous track
Used output format              : User Defined Encoder
Selected bitrate                : 1024 kBit/s
Quality                         : High
Add ID3 tag                     : No
Command line compressor         : C:\Program Files\Exact Audio Copy\Flac\flac.exe
Additional command line options : -V -8 -T "artist=%a" -T "title=%t" -T "album=%g" -T "date=%y" -T "tracknumber=%n" -T "genre=%m" %s
TOC of the extracted CD
     Track |   Start  |  Length  | Start sector | End sector
    ---------------------------------------------------------
        1  |  0:00.00 |  3:16.20 |         0    |    14719
        2  |  3:16.20 |  4:58.50 |     14720    |    37119
        3  |  8:14.70 |  4:49.07 |     37120    |    58801
        4  | 13:04.02 |  5:12.70 |     58802    |    82271
        5  | 18:16.72 |  4:55.73 |     82272    |   104469
        6  | 23:12.70 |  4:16.00 |    104470    |   123669
        7  | 27:28.70 |  5:26.55 |    123670    |   148174
        8  | 32:55.50 |  3:34.65 |    148175    |   164289
        9  | 36:30.40 |  3:27.60 |    164290    |   179874
       10  | 39:58.25 |  3:21.62 |    179875    |   195011
       11  | 43:20.12 |  4:42.45 |    195012    |   216206
       12  | 48:02.57 |  6:01.25 |    216207    |   243306
       13  | 54:04.07 |  3:31.20 |    243307    |   259151
       14  | 57:35.27 |  4:15.63 |    259152    |   278339
       15  | 61:51.15 |  5:20.07 |    278340    |   302346
Track  1
     Filename D:\Music\New\Rips\FLAC\Luxt - Disrepair (1997) [FLAC]\Luxt - 01 - This Ugly.wav
     Pre-gap length  0:00:02.00
     Peak level 90.5 %
     Extraction speed 1.8 X
     Track quality 100.0 %
     Test CRC 481E75DF
     Copy CRC 481E75DF
     Accurately ripped (confidence 2)  [100E6CFB]
     Copy OK
Track  2
     Filename D:\Music\New\Rips\FLAC\Luxt - Disrepair (1997) [FLAC]\Luxt - 02 - Megaplex.wav
     Peak level 90.5 %
     Extraction speed 2.1 X
     Track quality 100.0 %
     Test CRC 65DBF20A
     Copy CRC 65DBF20A
     Accurately ripped (confidence 2)  [54955545]
     Copy OK
Track  3
     Filename D:\Music\New\Rips\FLAC\Luxt - Disrepair (1997) [FLAC]\Luxt - 03 - World of Hurt.wav
     Peak level 90.5 %
     Extraction speed 2.3 X
     Track quality 100.0 %
     Test CRC 8CBA8EAB
     Copy CRC 8CBA8EAB
     Accurately ripped (confidence 2)  [E816BE4D]
     Copy OK
Track  4
     Filename D:\Music\New\Rips\FLAC\Luxt - Disrepair (1997) [FLAC]\Luxt - 04 - Hate Song.wav
     Peak level 90.5 %
     Extraction speed 2.6 X
     Track quality 100.0 %
     Test CRC 1F2BA67E
     Copy CRC 1F2BA67E
     Accurately ripped (confidence 2)  [350EAE1E]
     Copy OK
Track  5
     Filename D:\Music\New\Rips\FLAC\Luxt - Disrepair (1997) [FLAC]\Luxt - 05 - Not of My Kind.wav
     Peak level 90.5 %
     Extraction speed 2.7 X
     Track quality 100.0 %
     Test CRC 7F718D88
     Copy CRC 7F718D88
     Accurately ripped (confidence 2)  [0423AC42]
     Copy OK
Track  6
     Filename D:\Music\New\Rips\FLAC\Luxt - Disrepair (1997) [FLAC]\Luxt - 06 - Devil's Advocate.wav
     Peak level 90.5 %
     Extraction speed 2.3 X
     Track quality 99.9 %
     Test CRC 933A7268
     Copy CRC 933A7268
     Accurately ripped (confidence 2)  [6F08F62F]
     Copy OK
Track  7
     Filename D:\Music\New\Rips\FLAC\Luxt - Disrepair (1997) [FLAC]\Luxt - 07 - Intent.wav
     Peak level 90.5 %
     Extraction speed 2.6 X
     Track quality 99.9 %
     Test CRC 80BACEED
     Copy CRC 80BACEED
     Accurately ripped (confidence 2)  [E29465A1]
     Copy OK
Track  8
     Filename D:\Music\New\Rips\FLAC\Luxt - Disrepair (1997) [FLAC]\Luxt - 08 - Turbulence.wav
     Peak level 90.5 %
     Extraction speed 2.3 X
     Track quality 99.9 %
     Test CRC B29BE378
     Copy CRC B29BE378
     Accurately ripped (confidence 2)  [3696DF5C]
     Copy OK
Track  9
     Filename D:\Music\New\Rips\FLAC\Luxt - Disrepair (1997) [FLAC]\Luxt - 09 - Death.wav
     Peak level 90.5 %
     Extraction speed 3.2 X
     Track quality 100.0 %
     Test CRC 2C8FC295
     Copy CRC 2C8FC295
     Accurately ripped (confidence 2)  [F6AD47D7]
     Copy OK
Track 10
     Filename D:\Music\New\Rips\FLAC\Luxt - Disrepair (1997) [FLAC]\Luxt - 10 - Noxxul.wav
     Peak level 90.5 %
     Extraction speed 3.3 X
     Track quality 100.0 %
     Test CRC 1D113E78
     Copy CRC 1D113E78
     Accurately ripped (confidence 2)  [95243606]
     Copy OK
Track 11
     Filename D:\Music\New\Rips\FLAC\Luxt - Disrepair (1997) [FLAC]\Luxt - 11 - Darker Times.wav
     Peak level 90.5 %
     Extraction speed 2.8 X
     Track quality 99.9 %
     Test CRC CD3EF43E
     Copy CRC CD3EF43E
     Accurately ripped (confidence 2)  [C10BC4EE]
     Copy OK
Track 12
     Filename D:\Music\New\Rips\FLAC\Luxt - Disrepair (1997) [FLAC]\Luxt - 12 - Locust.wav
     Peak level 90.5 %
     Extraction speed 3.8 X
     Track quality 100.0 %
     Test CRC 333DBCEA
     Copy CRC 333DBCEA
     Accurately ripped (confidence 2)  [6975DE4A]
     Copy OK
Track 13
     Filename D:\Music\New\Rips\FLAC\Luxt - Disrepair (1997) [FLAC]\Luxt - 13 - Troll.wav
     Peak level 90.5 %
     Extraction speed 3.6 X
     Track quality 100.0 %
     Test CRC E26C41DC
     Copy CRC E26C41DC
     Accurately ripped (confidence 2)  [6DBC9046]
     Copy OK
Track 14
     Filename D:\Music\New\Rips\FLAC\Luxt - Disrepair (1997) [FLAC]\Luxt - 14 - Winter Kills.wav
     Peak level 90.5 %
     Extraction speed 3.9 X
     Track quality 100.0 %
     Test CRC BBBDF96A
     Copy CRC BBBDF96A
     Accurately ripped (confidence 2)  [AF19EAD8]
     Copy OK
Track 15
     Filename D:\Music\New\Rips\FLAC\Luxt - Disrepair (1997) [FLAC]\Luxt - 15 - Devil's Advocate (Lo-Corps Mix by Hate Dept.).wav
     Peak level 90.5 %
     Extraction speed 4.1 X
     Track quality 100.0 %
     Test CRC 5F0E67A3
     Copy CRC 5F0E67A3
     Accurately ripped (confidence 2)  [567DE425]
     Copy OK
All tracks accurately ripped
No errors occurred
End of status report
==== Log checksum 4B1CD6CF294DF96474BDC7D5E9CFBF54C4331726CA9009464FF8C5761E4A86B2 ====
Код:
REM GENRE Industrial
REM DATE 1997
REM DISCID E70FBF0F
REM COMMENT "ExactAudioCopy v1.0b1"
FILE "Luxt - 01 - This Ugly.flac" WAVE
  TRACK 01 AUDIO
    INDEX 01 00:00:00
FILE "Luxt - 02 - Megaplex.flac" WAVE
  TRACK 02 AUDIO
    INDEX 01 00:00:00
FILE "Luxt - 03 - World of Hurt.flac" WAVE
  TRACK 03 AUDIO
    INDEX 01 00:00:00
FILE "Luxt - 04 - Hate Song.flac" WAVE
  TRACK 04 AUDIO
    INDEX 01 00:00:00
FILE "Luxt - 05 - Not of My Kind.flac" WAVE
  TRACK 05 AUDIO
    INDEX 01 00:00:00
FILE "Luxt - 06 - Devil's Advocate.flac" WAVE
  TRACK 06 AUDIO
    INDEX 01 00:00:00
FILE "Luxt - 07 - Intent.flac" WAVE
  TRACK 07 AUDIO
    INDEX 01 00:00:00
FILE "Luxt - 08 - Turbulence.flac" WAVE
  TRACK 08 AUDIO
    INDEX 01 00:00:00
FILE "Luxt - 09 - Death.flac" WAVE
  TRACK 09 AUDIO
    INDEX 01 00:00:00
FILE "Luxt - 10 - Noxxul.flac" WAVE
  TRACK 10 AUDIO
    INDEX 01 00:00:00
FILE "Luxt - 11 - Darker Times.flac" WAVE
  TRACK 11 AUDIO
    INDEX 01 00:00:00
FILE "Luxt - 12 - Locust.flac" WAVE
  TRACK 12 AUDIO
    INDEX 01 00:00:00
FILE "Luxt - 13 - Troll.flac" WAVE
  TRACK 13 AUDIO
    INDEX 01 00:00:00
FILE "Luxt - 14 - Winter Kills.flac" WAVE
  TRACK 14 AUDIO
    INDEX 01 00:00:00
FILE "Luxt - 15 - Devil's Advocate (Lo-Corps Mix by Hate Dept.).flac" WAVE
  TRACK 15 AUDIO
    INDEX 01 00:00:00
Правила, инструкции, FAQ!!!
Торрент  Добавлен [26 июн 2020, 20:45] Скачать торрент Магнет ссылка
Скачать торрент
[ Размер 17.48 КБ / Просмотров 11 ]

Статус
Проверен 
 
Размер  409.34 МБ
Приватный: Нет (DHT включён)
.torrent скачан  0
 


     Отправить личное сообщение
   
Страница 1 из 1
Показать сообщения за:  Поле сортировки  
Начать новую тему Ответить на тему


Сейчас этот форум просматривают: нет зарегистрированных пользователей и гости: 0


Вы не можете начинать темы
Вы не можете отвечать на сообщения
Вы не можете редактировать свои сообщения
Вы не можете удалять свои сообщения
Вы не можете добавлять вложения

Перейти:  
cron