Начать новую тему Ответить на тему
Статистика раздачи
Размер: 482.7 МБ | Добавлен: 26 июн 2020, 20:45 | Скачали: 0
Сидеров: 0  [0 байт/сек]    Личеров: 0  [0 байт/сек]
Пред. тема | След. тема 

Автор
Сообщение

СообщениеДобавлено: 26 июн 2020, 20:45 

Ответить с цитатой 

Luxt - Chromasex Monkeydrive

Жанр: Industrial
Страна-производитель диска: USA
Год издания диска: 2000
Издатель (лейбл): Chalkhead Records
Номер по каталогу: CLK 17
Страна: USA
Аудиокодек: FLAC (*.flac)
Тип рипа: tracks+.cue
Битрейт аудио: lossless
Продолжительность: 1:08:15.533
Источник (релизер): waffles.fm
Наличие сканов в содержимом раздачи: нет

Треклист:
01. Fiend 4:56
02. Brutal 5:05
03. Knock You Down 5:22
04. Proof 3:47
05. Genocide Skin 4:26
06. No Turning Back 5:29
07. User 4:46
08. Vulgar Monkey Love 4:40
09. Inside 5:10
10. Blast Furnace 5:15
11. Matthew 10:12 4:49
12. Disobey 5:23
13. Innocence Lost 2000 3:36
14. Rain 1 0:16
15. Rain 2 0:16
16. Rain 3 0:17
17. Wiccid 4:37
Лучшая ваша благодарность за раздачу - отзывы об альбоме!
This torrent is approved by the Waffle Irons with high confidence of being a perfect rip.

Код:
Exact Audio Copy V1.0 beta 1 from 15. November 2010
EAC extraction logfile from 5. April 2011, 18:16
Luxt / Chromasex Monkeydrive
Used drive  : LITE-ON DVDRW LH-20A1H   Adapter: 0  ID: 0
Read mode               : Secure
Utilize accurate stream : Yes
Defeat audio cache      : Yes
Make use of C2 pointers : No
Read offset correction                      : 6
Overread into Lead-In and Lead-Out          : No
Fill up missing offset samples with silence : Yes
Delete leading and trailing silent blocks   : No
Null samples used in CRC calculations       : Yes
Used interface                              : Native Win32 interface for Win NT & 2000
Gap handling                                : Appended to previous track
Used output format              : User Defined Encoder
Selected bitrate                : 1024 kBit/s
Quality                         : High
Add ID3 tag                     : No
Command line compressor         : C:\Program Files\Exact Audio Copy\Flac\flac.exe
Additional command line options : -V -8 -T "artist=%a" -T "title=%t" -T "album=%g" -T "date=%y" -T "tracknumber=%n" -T "genre=%m" %s
TOC of the extracted CD
     Track |   Start  |  Length  | Start sector | End sector
    ---------------------------------------------------------
        1  |  0:00.00 |  4:56.08 |         0    |    22207
        2  |  4:56.08 |  5:05.19 |     22208    |    45101
        3  | 10:01.27 |  5:22.63 |     45102    |    69314
        4  | 15:24.15 |  3:47.36 |     69315    |    86375
        5  | 19:11.51 |  4:26.21 |     86376    |   106346
        6  | 23:37.72 |  5:29.41 |    106347    |   131062
        7  | 29:07.38 |  4:46.05 |    131063    |   152517
        8  | 33:53.43 |  4:40.20 |    152518    |   173537
        9  | 38:33.63 |  5:10.09 |    173538    |   196796
       10  | 43:43.72 |  5:15.37 |    196797    |   220458
       11  | 48:59.34 |  4:49.10 |    220459    |   242143
       12  | 53:48.44 |  5:23.05 |    242144    |   266373
       13  | 59:11.49 |  3:36.72 |    266374    |   282645
       14  | 62:48.46 |  0:16.01 |    282646    |   283846
       15  | 63:04.47 |  0:16.01 |    283847    |   285047
       16  | 63:20.48 |  0:17.01 |    285048    |   286323
       17  | 63:37.49 |  4:37.66 |    286324    |   307164
Track  1
     Filename D:\Music\New\Rips\FLAC\Luxt - Chromasex Monkeydrive (2000) [FLAC]\Luxt - 01 - Fiend.wav
     Pre-gap length  0:00:02.00
     Peak level 96.5 %
     Extraction speed 1.9 X
     Track quality 100.0 %
     Test CRC 3BD415F2
     Copy CRC 3BD415F2
     Cannot be verified as accurate (confidence 3)  [DC8645A8], AccurateRip returned [BE171D2F]
     Copy OK
Track  2
     Filename D:\Music\New\Rips\FLAC\Luxt - Chromasex Monkeydrive (2000) [FLAC]\Luxt - 02 - Brutal.wav
     Pre-gap length  0:00:02.00
     Peak level 96.5 %
     Extraction speed 2.1 X
     Track quality 100.0 %
     Test CRC 18A0DAF1
     Copy CRC 18A0DAF1
     Cannot be verified as accurate (confidence 3)  [607465B2], AccurateRip returned [AC3B772A]
     Copy OK
Track  3
     Filename D:\Music\New\Rips\FLAC\Luxt - Chromasex Monkeydrive (2000) [FLAC]\Luxt - 03 - Knock You Down.wav
     Pre-gap length  0:00:02.00
     Peak level 96.5 %
     Extraction speed 2.4 X
     Track quality 100.0 %
     Test CRC 874FE568
     Copy CRC 874FE568
     Cannot be verified as accurate (confidence 3)  [8F7BBFC6], AccurateRip returned [D9A4E204]
     Copy OK
Track  4
     Filename D:\Music\New\Rips\FLAC\Luxt - Chromasex Monkeydrive (2000) [FLAC]\Luxt - 04 - Proof.wav
     Pre-gap length  0:00:02.00
     Peak level 96.5 %
     Extraction speed 2.0 X
     Track quality 99.9 %
     Test CRC D87A09D6
     Copy CRC D87A09D6
     Cannot be verified as accurate (confidence 3)  [957EA018], AccurateRip returned [B28DAE5B]
     Copy OK
Track  5
     Filename D:\Music\New\Rips\FLAC\Luxt - Chromasex Monkeydrive (2000) [FLAC]\Luxt - 05 - Genocide Skin.wav
     Pre-gap length  0:00:02.00
     Peak level 96.5 %
     Extraction speed 2.2 X
     Track quality 99.9 %
     Test CRC 1438926A
     Copy CRC 1438926A
     Cannot be verified as accurate (confidence 3)  [6C0AA775], AccurateRip returned [ED02F67F]
     Copy OK
Track  6
     Filename D:\Music\New\Rips\FLAC\Luxt - Chromasex Monkeydrive (2000) [FLAC]\Luxt - 06 - No Turning Back.wav
     Pre-gap length  0:00:02.00
     Peak level 96.5 %
     Extraction speed 2.9 X
     Track quality 100.0 %
     Test CRC F4F96D4B
     Copy CRC F4F96D4B
     Cannot be verified as accurate (confidence 3)  [6D9621A4], AccurateRip returned [0DED0361]
     Copy OK
Track  7
     Filename D:\Music\New\Rips\FLAC\Luxt - Chromasex Monkeydrive (2000) [FLAC]\Luxt - 07 - User.wav
     Pre-gap length  0:00:02.00
     Peak level 96.5 %
     Extraction speed 3.0 X
     Track quality 100.0 %
     Test CRC BB0BC779
     Copy CRC BB0BC779
     Cannot be verified as accurate (confidence 3)  [6FE019DB], AccurateRip returned [9B285AEC]
     Copy OK
Track  8
     Filename D:\Music\New\Rips\FLAC\Luxt - Chromasex Monkeydrive (2000) [FLAC]\Luxt - 08 - Vulgar Monkey Love.wav
     Pre-gap length  0:00:02.00
     Peak level 96.5 %
     Extraction speed 2.5 X
     Track quality 99.9 %
     Test CRC 5158AE52
     Copy CRC 5158AE52
     Cannot be verified as accurate (confidence 3)  [8D8401FC], AccurateRip returned [A6E69F41]
     Copy OK
Track  9
     Filename D:\Music\New\Rips\FLAC\Luxt - Chromasex Monkeydrive (2000) [FLAC]\Luxt - 09 - Inside.wav
     Pre-gap length  0:00:02.00
     Peak level 96.5 %
     Extraction speed 2.7 X
     Track quality 99.9 %
     Test CRC AF9978D5
     Copy CRC AF9978D5
     Cannot be verified as accurate (confidence 3)  [93262A34], AccurateRip returned [9AFDAC06]
     Copy OK
Track 10
     Filename D:\Music\New\Rips\FLAC\Luxt - Chromasex Monkeydrive (2000) [FLAC]\Luxt - 10 - Blast Furnace.wav
     Pre-gap length  0:00:02.00
     Peak level 96.5 %
     Extraction speed 3.5 X
     Track quality 100.0 %
     Test CRC 9BD8FF16
     Copy CRC 9BD8FF16
     Cannot be verified as accurate (confidence 3)  [4A3FD680], AccurateRip returned [14691480]
     Copy OK
Track 11
     Filename D:\Music\New\Rips\FLAC\Luxt - Chromasex Monkeydrive (2000) [FLAC]\Luxt - 11 - Matthew 10-12.wav
     Pre-gap length  0:00:02.00
     Peak level 96.5 %
     Extraction speed 3.6 X
     Track quality 100.0 %
     Test CRC 5D9C59A7
     Copy CRC 5D9C59A7
     Cannot be verified as accurate (confidence 3)  [392E23EB], AccurateRip returned [91436CDB]
     Copy OK
Track 12
     Filename D:\Music\New\Rips\FLAC\Luxt - Chromasex Monkeydrive (2000) [FLAC]\Luxt - 12 - Disobey.wav
     Pre-gap length  0:00:02.00
     Peak level 96.5 %
     Extraction speed 2.9 X
     Track quality 99.9 %
     Test CRC 3623E10C
     Copy CRC 3623E10C
     Cannot be verified as accurate (confidence 3)  [25FB4DC9], AccurateRip returned [CD52DE29]
     Copy OK
Track 13
     Filename D:\Music\New\Rips\FLAC\Luxt - Chromasex Monkeydrive (2000) [FLAC]\Luxt - 13 - Innocence Lost 2000.wav
     Pre-gap length  0:00:02.00
     Peak level 96.5 %
     Extraction speed 3.6 X
     Track quality 100.0 %
     Test CRC DE4DFBFC
     Copy CRC DE4DFBFC
     Cannot be verified as accurate (confidence 3)  [517E8D31], AccurateRip returned [4CFEF7E7]
     Copy OK
Track 14
     Filename D:\Music\New\Rips\FLAC\Luxt - Chromasex Monkeydrive (2000) [FLAC]\Luxt - 14 - (silence).wav
     Pre-gap length  0:00:02.00
     Peak level 19.8 %
     Extraction speed 1.2 X
     Track quality 100.0 %
     Test CRC 076B1D65
     Copy CRC 076B1D65
     Cannot be verified as accurate (confidence 3)  [15F16F88], AccurateRip returned [9D16C9D9]
     Copy OK
Track 15
     Filename D:\Music\New\Rips\FLAC\Luxt - Chromasex Monkeydrive (2000) [FLAC]\Luxt - 15 - (silence 2).wav
     Pre-gap length  0:00:02.00
     Peak level 43.1 %
     Extraction speed 1.2 X
     Track quality 100.0 %
     Test CRC 217C0F98
     Copy CRC 217C0F98
     Cannot be verified as accurate (confidence 3)  [A2FA8ADD], AccurateRip returned [A2922D64]
     Copy OK
Track 16
     Filename D:\Music\New\Rips\FLAC\Luxt - Chromasex Monkeydrive (2000) [FLAC]\Luxt - 16 - (silence 3).wav
     Pre-gap length  0:00:02.00
     Peak level 62.0 %
     Extraction speed 1.3 X
     Track quality 100.0 %
     Test CRC 15A27A79
     Copy CRC 15A27A79
     Cannot be verified as accurate (confidence 3)  [A0915133], AccurateRip returned [310C4CA1]
     Copy OK
Track 17
     Filename D:\Music\New\Rips\FLAC\Luxt - Chromasex Monkeydrive (2000) [FLAC]\Luxt - 17 - Untitled.wav
     Pre-gap length  0:00:02.00
     Peak level 96.5 %
     Extraction speed 3.9 X
     Track quality 100.0 %
     Test CRC E0332E15
     Copy CRC E0332E15
     Track not present in AccurateRip database
     Copy OK
16 track(s) could not be verified as accurate
 1 track(s) not present in the AccurateRip database
No tracks could be verified as accurate
You may have a different pressing from the one(s) in the database
No errors occurred
End of status report
==== Log checksum D74A758E5E5D26D35E2D05D6728AE616FA004133806ABC77E47CBB83C2BCF207 ====
Код:
REM GENRE Industrial
REM DATE 2000
REM DISCID F40FFF11
REM COMMENT "ExactAudioCopy v1.0b1"
FILE "Luxt - 01 - Fiend.flac" WAVE
  TRACK 01 AUDIO
    FLAGS DCP
    INDEX 01 00:00:00
  TRACK 02 AUDIO
    FLAGS DCP
    INDEX 00 04:54:08
FILE "Luxt - 02 - Brutal.flac" WAVE
    INDEX 01 00:00:00
  TRACK 03 AUDIO
    FLAGS DCP
    INDEX 00 05:03:19
FILE "Luxt - 03 - Knock You Down.flac" WAVE
    INDEX 01 00:00:00
  TRACK 04 AUDIO
    FLAGS DCP
    INDEX 00 05:20:63
FILE "Luxt - 04 - Proof.flac" WAVE
    INDEX 01 00:00:00
  TRACK 05 AUDIO
    FLAGS DCP
    INDEX 00 03:45:36
FILE "Luxt - 05 - Genocide Skin.flac" WAVE
    INDEX 01 00:00:00
  TRACK 06 AUDIO
    FLAGS DCP
    INDEX 00 04:24:21
FILE "Luxt - 06 - No Turning Back.flac" WAVE
    INDEX 01 00:00:00
  TRACK 07 AUDIO
    FLAGS DCP
    INDEX 00 05:27:41
FILE "Luxt - 07 - User.flac" WAVE
    INDEX 01 00:00:00
  TRACK 08 AUDIO
    FLAGS DCP
    INDEX 00 04:44:05
FILE "Luxt - 08 - Vulgar Monkey Love.flac" WAVE
    INDEX 01 00:00:00
  TRACK 09 AUDIO
    FLAGS DCP
    INDEX 00 04:38:20
FILE "Luxt - 09 - Inside.flac" WAVE
    INDEX 01 00:00:00
  TRACK 10 AUDIO
    FLAGS DCP
    INDEX 00 05:08:09
FILE "Luxt - 10 - Blast Furnace.flac" WAVE
    INDEX 01 00:00:00
  TRACK 11 AUDIO
    FLAGS DCP
    INDEX 00 05:13:37
FILE "Luxt - 11 - Matthew 10-12.flac" WAVE
    INDEX 01 00:00:00
  TRACK 12 AUDIO
    FLAGS DCP
    INDEX 00 04:47:10
FILE "Luxt - 12 - Disobey.flac" WAVE
    INDEX 01 00:00:00
  TRACK 13 AUDIO
    FLAGS DCP
    INDEX 00 05:21:05
FILE "Luxt - 13 - Innocence Lost 2000.flac" WAVE
    INDEX 01 00:00:00
  TRACK 14 AUDIO
    FLAGS DCP
    INDEX 00 03:34:72
FILE "Luxt - 14 - (silence).flac" WAVE
    INDEX 01 00:00:00
  TRACK 15 AUDIO
    FLAGS DCP
    INDEX 00 00:14:01
FILE "Luxt - 15 - (silence 2).flac" WAVE
    INDEX 01 00:00:00
  TRACK 16 AUDIO
    FLAGS DCP
    INDEX 00 00:14:01
FILE "Luxt - 16 - (silence 3).flac" WAVE
    INDEX 01 00:00:00
  TRACK 17 AUDIO
    FLAGS DCP
    INDEX 00 00:15:01
FILE "Luxt - 17 - Untitled.flac" WAVE
    INDEX 01 00:00:00
Правила, инструкции, FAQ!!!
Торрент  Добавлен [26 июн 2020, 20:45] Скачать торрент Магнет ссылка
Скачать торрент
[ Размер 20.49 КБ / Просмотров 8 ]

Статус
Проверен 
 
Размер  482.7 МБ
Приватный: Нет (DHT включён)
.torrent скачан  0
 


     Отправить личное сообщение
   
Страница 1 из 1
Показать сообщения за:  Поле сортировки  
Начать новую тему Ответить на тему


Сейчас этот форум просматривают: нет зарегистрированных пользователей и гости: 0


Вы не можете начинать темы
Вы не можете отвечать на сообщения
Вы не можете редактировать свои сообщения
Вы не можете удалять свои сообщения
Вы не можете добавлять вложения

Перейти:  
cron