Начать новую тему Ответить на тему
Статистика раздачи
Размер: 432.3 МБ | Добавлен: 26 июн 2020, 20:37 | Скачали: 0
Сидеров: 0  [0 байт/сек]    Личеров: 0  [0 байт/сек]
Пред. тема | След. тема 

Автор
Сообщение

СообщениеДобавлено: 26 июн 2020, 20:37 

Ответить с цитатой 

Leaether Strip - Serenade for the Dead (1994)
Жанр: Industrial, Modern Classical
Год выпуска диска: 1995
Производитель диска: Cleopatra (CLEO 9502-2), USA
Аудио кодек: FLAC
Тип рипа: image+.cue
Битрейт аудио: lossless
Продолжительность: 66:39
Трэклист:
1. Serenade For The Dead (3:53)
2. Black Widow's Kiss (7:42)
3. Stillborn (6:07)
4. The Return Of The Evil One (8:30)
5. Black Death (4:41)
6. New Dark Ages (6:31)
7. The Corridors Of Sleep (6:55)
8. The Awakening (9:07)
9. Blood Lust (6:14)
10. Corpus (6:30)
Источник рипа: собственный диск, ковры есть.
Код:
Exact Audio Copy V0.99 prebeta 4 from 23. January 2008
Отчёт EAC об извлечении, выполненном 14. сентября 2009, 22:34
Leaether Strip / Serenade for the Dead
Дисковод: Optiarc DVD RW AD-5200S   Adapter: 1  ID: 1
Режим чтения                 : Достоверность
Использование точного потока : Да
Отключение кэша аудио        : Да
Использование указателей C2  : Нет
Коррекция смещения при чтении                     : 48
Способность читать области Lead-in и Lead-out     : Нет
Заполнение пропущенных сэмплов тишиной            : Да
Удаление блоков с тишиной в начале и конце        : Нет
При вычислениях CRC использовались нулевые сэмплы : Да
Интерфейс                                         : Встроенный Win32-интерфейс для Win NT/2000
Выходной формат : Внутренние WAV-операции
Формат сэмплов  : 44.100 Гц; 16 бит; стерео
TOC извлечённого CD
     Трек |   Старт  | Длительность | Начальный сектор | Конечный сектор
    ---------------------------------------------------------------------
       1  |  0:00.00 |    3:56.00   |           0      |      17699
       2  |  3:56.00 |    7:44.50   |       17700      |      52549
       3  | 11:40.50 |    6:10.25   |       52550      |      80324
       4  | 17:51.00 |    8:32.25   |       80325      |     118749
       5  | 26:23.25 |    4:44.00   |      118750      |     140049
       6  | 31:07.25 |    6:33.25   |      140050      |     169549
       7  | 37:40.50 |    6:59.25   |      169550      |     200999
       8  | 44:40.00 |    9:10.25   |      201000      |     242274
       9  | 53:50.25 |    6:16.50   |      242275      |     270524
      10  | 60:07.00 |    6:31.62   |      270525      |     299911
Характеристики диапазона извлечения и сообщения об ошибках
Выбранный диапазон
     Имя файла E:\Image\Leaether Strip - Serenade for the Dead.wav
     Пиковый уровень 100.0 %
     Качество диапазона 100.0 %
     CRC копии 39D3E830
     Копирование... OK
Ошибок не произошло
AccurateRip: сводка
Трек  1  точное извлечение (доверие 2)  [2A44B37C]
Трек  2  точное извлечение (доверие 2)  [AE6FEAC8]
Трек  3  точное извлечение (доверие 2)  [B3696103]
Трек  4  точное извлечение (доверие 2)  [43073782]
Трек  5  точное извлечение (доверие 2)  [4FFDB71C]
Трек  6  точное извлечение (доверие 2)  [CA7E6FF8]
Трек  7  точное извлечение (доверие 2)  [7E962B25]
Трек  8  точное извлечение (доверие 2)  [B236EC8D]
Трек  9  точное извлечение (доверие 2)  [ABE1504C]
Трек 10  точное извлечение (доверие 2)  [8A70930D]
Все треки извлечены точно
Конец отчёта
Правила, инструкции, FAQ!!!
Торрент  Добавлен [26 июн 2020, 20:37] Скачать торрент Магнет ссылка
Скачать торрент
[ Размер 17.68 КБ / Просмотров 9 ]

Статус
Проверен 
 
Размер  432.3 МБ
Приватный: Нет (DHT включён)
.torrent скачан  0
 


     Отправить личное сообщение
   
Страница 1 из 1
Показать сообщения за:  Поле сортировки  
Начать новую тему Ответить на тему


Сейчас этот форум просматривают: нет зарегистрированных пользователей и гости: 0


Вы не можете начинать темы
Вы не можете отвечать на сообщения
Вы не можете редактировать свои сообщения
Вы не можете удалять свои сообщения
Вы не можете добавлять вложения

Перейти:  
cron