Начать новую тему Ответить на тему
Статистика раздачи
Размер: 370.12 МБ | Добавлен: 26 июн 2020, 19:53 | Скачали: 0
Сидеров: 0  [0 байт/сек]    Личеров: 0  [0 байт/сек]
Пред. тема | След. тема 

Автор
Сообщение

СообщениеДобавлено: 26 июн 2020, 19:53 

Ответить с цитатой 

Index - Sky Laced Silver
Жанр: Industrial
Год выпуска диска: 1995
Производитель диска: Germany
Аудио кодек: FLAC
Тип рипа: tracks+.cue
Битрейт аудио: lossless
Продолжительность: 55:22
Трэклист:
1 Black Razor (5:21)
2 Static Sky (4:56)
3 This Day (3:15)
4 Broken (2:41)
5 Shadows (3:56)
6 World News (4:58)
7 Angelfire (6:25)
8 Snow Drowns The Saint (2:41)
9 Where (6:12)
10 Reignfall (6:03)
11 Canon (2:57)
12 Millenium Petals (Thorn) (5:50)
Доп. информация:
Label: COP International
Catalog#: COP CD018
Credits: Artwork By [Design] - Curium; Engineer - Airwreck, E-Code; Lyrics By, Performer - Eric Chamberlain; Performer - Cody Cast; Producer, Arranged By, Written-By, Mixed By, Music By - Index
Notes: Produced, Arranged, Written and Remixed at Bell Europa Studios. Engineered at The Tyrell Corp
Код:
Exact Audio Copy V0.99 prebeta 5 from 4. May 2009
EAC extraction logfile from 19. May 2009, 20:45
Index / Sky Laced Silver
Used drive  : TEAC    CD-W540E   Adapter: 3  ID: 0
Read mode               : Secure
Utilize accurate stream : Yes
Defeat audio cache      : Yes
Make use of C2 pointers : No
Read offset correction                      : 686
Overread into Lead-In and Lead-Out          : No
Fill up missing offset samples with silence : Yes
Delete leading and trailing silent blocks   : No
Null samples used in CRC calculations       : Yes
Used interface                              : Installed external ASPI interface
Gap handling                                : Appended to previous track
Used output format              : User Defined Encoder
Selected bitrate                : 1024 kBit/s
Quality                         : High
Add ID3 tag                     : No
Command line compressor         : D:\Programs\Tools\_Exact Audio Copy\FLAC\FLAC.EXE
Additional command line options : -8 -V -T "ARTIST=%a" -T "TITLE=%t" -T "ALBUM=%g" -T "DATE=%y" -T "TRACKNUMBER=%n" -T "GENRE=%m" -T "COMMENT=%e" %s -o %d
TOC of the extracted CD
     Track |   Start  |  Length  | Start sector | End sector
    ---------------------------------------------------------
        1  |  0:00.00 |  5:21.50 |         0    |    24124
        2  |  5:21.50 |  4:56.25 |     24125    |    46349
        3  | 10:18.00 |  3:15.25 |     46350    |    60999
        4  | 13:33.25 |  2:41.25 |     61000    |    73099
        5  | 16:14.50 |  3:56.50 |     73100    |    90849
        6  | 20:11.25 |  4:58.50 |     90850    |   113249
        7  | 25:10.00 |  6:25.00 |    113250    |   142124
        8  | 31:35.00 |  2:41.50 |    142125    |   154249
        9  | 34:16.50 |  6:12.50 |    154250    |   182199
       10  | 40:29.25 |  6:03.50 |    182200    |   209474
       11  | 46:33.00 |  2:57.50 |    209475    |   222799
       12  | 49:30.50 |  5:50.70 |    222800    |   249119
Track  1
     Filename G:\EAC Temporare\01 Black Razor.wav
     Pre-gap length  0:00:02.00
     Peak level 99.0 %
     Track quality 100.0 %
     Test CRC E8C51EB8
     Copy CRC E8C51EB8
     Track not present in AccurateRip database
     Copy OK
Track  2
     Filename G:\EAC Temporare\02 Static Sky.wav
     Pre-gap length  0:00:01.08
     Peak level 98.6 %
     Track quality 100.0 %
     Test CRC F0DB1E5C
     Copy CRC F0DB1E5C
     Accurately ripped (confidence 2)  [BAFFDF96]
     Copy OK
Track  3
     Filename G:\EAC Temporare\03 This Day.wav
     Pre-gap length  0:00:00.55
     Peak level 98.0 %
     Track quality 100.0 %
     Test CRC 5D2D2ECD
     Copy CRC 5D2D2ECD
     Accurately ripped (confidence 2)  [1A1734F0]
     Copy OK
Track  4
     Filename G:\EAC Temporare\04 Broken.wav
     Pre-gap length  0:00:00.65
     Peak level 97.7 %
     Track quality 100.0 %
     Test CRC F4FD7F1D
     Copy CRC F4FD7F1D
     Accurately ripped (confidence 2)  [35E46FE7]
     Copy OK
Track  5
     Filename G:\EAC Temporare\05 Shadows.wav
     Pre-gap length  0:00:01.00
     Peak level 98.8 %
     Track quality 100.0 %
     Test CRC 035BE36E
     Copy CRC 035BE36E
     Accurately ripped (confidence 2)  [083A680B]
     Copy OK
Track  6
     Filename G:\EAC Temporare\06 World News.wav
     Pre-gap length  0:00:00.58
     Peak level 99.4 %
     Track quality 100.0 %
     Test CRC B6CD66D7
     Copy CRC B6CD66D7
     Accurately ripped (confidence 2)  [11292065]
     Copy OK
Track  7
     Filename G:\EAC Temporare\07 Angelfire.wav
     Pre-gap length  0:00:00.60
     Peak level 98.1 %
     Track quality 100.0 %
     Test CRC 5DC9E215
     Copy CRC 5DC9E215
     Accurately ripped (confidence 2)  [C5616480]
     Copy OK
Track  8
     Filename G:\EAC Temporare\08 Snowdrownsthesaint.wav
     Pre-gap length  0:00:01.03
     Peak level 99.5 %
     Track quality 100.0 %
     Test CRC B8260676
     Copy CRC B8260676
     Accurately ripped (confidence 2)  [3ABCCF51]
     Copy OK
Track  9
     Filename G:\EAC Temporare\09 Where.wav
     Pre-gap length  0:00:00.55
     Peak level 98.0 %
     Track quality 100.0 %
     Test CRC 035A3858
     Copy CRC 035A3858
     Accurately ripped (confidence 2)  [1B4EF86E]
     Copy OK
Track 10
     Filename G:\EAC Temporare\10 Reignfall.wav
     Pre-gap length  0:00:00.70
     Peak level 99.4 %
     Track quality 100.0 %
     Test CRC 1E484023
     Copy CRC 1E484023
     Accurately ripped (confidence 2)  [7AE25BF0]
     Copy OK
Track 11
     Filename G:\EAC Temporare\11 Canon.wav
     Pre-gap length  0:00:01.05
     Peak level 98.6 %
     Track quality 99.9 %
     Test CRC 6E4C7D3B
     Copy CRC 6E4C7D3B
     Accurately ripped (confidence 2)  [77B6E3FE]
     Copy OK
Track 12
     Filename G:\EAC Temporare\12 Millenium Petals (Thorn).wav
     Pre-gap length  0:00:00.45
     Peak level 98.0 %
     Track quality 100.0 %
     Test CRC D3D46EA7
     Copy CRC D3D46EA7
     Accurately ripped (confidence 2)  [C30AEED7]
     Copy OK
11 track(s) accurately ripped
 1 track(s) not present in the AccurateRip database
Some tracks could not be verified as accurate
No errors occurred
End of status report
Зарелизено на rutracker.org

на раздаче ВСЕГДА в нерабочее время (вечер, ночь, выходные), в остальное время как получится
Правила, инструкции, FAQ!!!
Торрент  Добавлен [26 июн 2020, 19:53] Скачать торрент Магнет ссылка
Скачать торрент
[ Размер 16.16 КБ / Просмотров 9 ]

Статус
Проверен 
 
Размер  370.12 МБ
Приватный: Нет (DHT включён)
.torrent скачан  0
 


     Отправить личное сообщение
   
Страница 1 из 1
Показать сообщения за:  Поле сортировки  
Начать новую тему Ответить на тему


Сейчас этот форум просматривают: нет зарегистрированных пользователей и гости: 0


Вы не можете начинать темы
Вы не можете отвечать на сообщения
Вы не можете редактировать свои сообщения
Вы не можете удалять свои сообщения
Вы не можете добавлять вложения

Перейти:  
cron