Начать новую тему Ответить на тему
Статистика раздачи
Размер: 507.64 МБ | Добавлен: 26 июн 2020, 19:45 | Скачали: 0
Сидеров: 0  [0 байт/сек]    Личеров: 0  [0 байт/сек]
Пред. тема | След. тема 

Автор
Сообщение

СообщениеДобавлено: 26 июн 2020, 19:45 

Ответить с цитатой 

Index - Black Light Twilight
Жанр: Industrial
Год выпуска диска: 1996
Производитель диска: Germany
Аудио кодек: FLAC
Тип рипа: tracks+.cue
Битрейт аудио: lossless
Продолжительность: 1:12:29
Трэклист:
1 Render Godless (5:51)
2 Cinder Cinder Girl (7:02)
3 Wait For Me (5:05)
4 Bliss (5:11)
5 Departure (4:08)
6 Vesperal (6:14)
7 Iconoclast (4:15)
8 The Dove (5:53)
9 Halcyon Ghetto (4:14)
10 Terahertz Dropzone (6:43)
11 Quadra Voidria (7:14)
12 Hand Over Eyes (6:37)
13 Black Light Twilight (3:57)
Доп. информация:
Label: COP International
Catalog#: COP CD025
Credits: Artwork By [Cover Art] - Tom Sebring; Artwork By [Design] - Curium; Written-By, Arranged By, Performer, Producer - Eric Chamberlain
Код:
Exact Audio Copy V0.99 prebeta 5 from 4. May 2009
EAC extraction logfile from 17. May 2009, 22:35
Index / Black Light Twilight
Used drive  : _NEC    DVD_RW ND-3550A   Adapter: 0  ID: 0
Read mode               : Secure
Utilize accurate stream : Yes
Defeat audio cache      : Yes
Make use of C2 pointers : No
Read offset correction                      : 48
Overread into Lead-In and Lead-Out          : No
Fill up missing offset samples with silence : Yes
Delete leading and trailing silent blocks   : No
Null samples used in CRC calculations       : Yes
Used interface                              : Installed external ASPI interface
Gap handling                                : Appended to previous track
Used output format              : User Defined Encoder
Selected bitrate                : 1024 kBit/s
Quality                         : High
Add ID3 tag                     : No
Command line compressor         : D:\Programs\Tools\_Exact Audio Copy\FLAC\FLAC.EXE
Additional command line options : -8 -V -T "ARTIST=%a" -T "TITLE=%t" -T "ALBUM=%g" -T "DATE=%y" -T "TRACKNUMBER=%n" -T "GENRE=%m" -T "COMMENT=%e" %s -o %d
TOC of the extracted CD
     Track |   Start  |  Length  | Start sector | End sector
    ---------------------------------------------------------
        1  |  0:00.00 |  5:51.55 |         0    |    26379
        2  |  5:51.55 |  7:02.45 |     26380    |    58074
        3  | 12:54.25 |  5:05.25 |     58075    |    80974
        4  | 17:59.50 |  5:11.25 |     80975    |   104324
        5  | 23:11.00 |  4:08.35 |    104325    |   122959
        6  | 27:19.35 |  6:14.65 |    122960    |   151074
        7  | 33:34.25 |  4:15.25 |    151075    |   170224
        8  | 37:49.50 |  5:53.25 |    170225    |   196724
        9  | 43:43.00 |  4:14.25 |    196725    |   215799
       10  | 47:57.25 |  6:43.00 |    215800    |   246024
       11  | 54:40.25 |  7:14.50 |    246025    |   278624
       12  | 61:55.00 |  6:37.00 |    278625    |   308399
       13  | 68:32.00 |  3:57.32 |    308400    |   326206
Track  1
     Filename G:\EAC Temporare\01 Render Godless.wav
     Pre-gap length  0:00:02.00
     Peak level 99.1 %
     Track quality 99.9 %
     Test CRC 29FDF257
     Copy CRC 29FDF257
     Accurately ripped (confidence 3)  [C728B0BB]
     Copy OK
Track  2
     Filename G:\EAC Temporare\02 Cinder Cinder Girl.wav
     Peak level 98.7 %
     Track quality 100.0 %
     Test CRC FD875AE5
     Copy CRC FD875AE5
     Accurately ripped (confidence 3)  [7C507803]
     Copy OK
Track  3
     Filename G:\EAC Temporare\03 Wait For Me.wav
     Pre-gap length  0:00:00.10
     Peak level 99.3 %
     Track quality 100.0 %
     Test CRC EEBBD45C
     Copy CRC EEBBD45C
     Accurately ripped (confidence 4)  [F0E8B957]
     Copy OK
Track  4
     Filename G:\EAC Temporare\04 Bliss.wav
     Pre-gap length  0:00:00.70
     Peak level 99.2 %
     Track quality 100.0 %
     Test CRC 29E95821
     Copy CRC 29E95821
     Accurately ripped (confidence 4)  [0F0DE6CF]
     Copy OK
Track  5
     Filename G:\EAC Temporare\05 Departure.wav
     Pre-gap length  0:00:01.25
     Peak level 98.0 %
     Track quality 100.0 %
     Test CRC BC8BC182
     Copy CRC BC8BC182
     Accurately ripped (confidence 4)  [E676BA77]
     Copy OK
Track  6
     Filename G:\EAC Temporare\06 Vesperal.wav
     Peak level 99.1 %
     Track quality 100.0 %
     Test CRC A011C0DB
     Copy CRC A011C0DB
     Accurately ripped (confidence 4)  [CB56B8A7]
     Copy OK
Track  7
     Filename G:\EAC Temporare\07 Iconoclast.wav
     Pre-gap length  0:00:00.63
     Peak level 98.4 %
     Track quality 99.9 %
     Test CRC 9EEA7FF9
     Copy CRC 9EEA7FF9
     Accurately ripped (confidence 4)  [C4FFBC4B]
     Copy OK
Track  8
     Filename G:\EAC Temporare\08 The Dove.wav
     Pre-gap length  0:00:00.48
     Peak level 98.0 %
     Track quality 99.9 %
     Test CRC 76E3F6EE
     Copy CRC 76E3F6EE
     Accurately ripped (confidence 4)  [A9A6C6B8]
     Copy OK
Track  9
     Filename G:\EAC Temporare\09 Halycon Ghetto.wav
     Pre-gap length  0:00:01.30
     Peak level 94.1 %
     Track quality 99.9 %
     Test CRC 862FDC3D
     Copy CRC 862FDC3D
     Accurately ripped (confidence 4)  [1E29BD76]
     Copy OK
Track 10
     Filename G:\EAC Temporare\10 Terahertz Dropzone.wav
     Pre-gap length  0:00:00.60
     Peak level 99.6 %
     Track quality 100.0 %
     Test CRC 8B791CED
     Copy CRC 8B791CED
     Accurately ripped (confidence 4)  [460AAE33]
     Copy OK
Track 11
     Filename G:\EAC Temporare\11 Quadra Voidria.wav
     Pre-gap length  0:00:00.18
     Peak level 98.6 %
     Track quality 99.9 %
     Test CRC 2EDD8928
     Copy CRC 2EDD8928
     Accurately ripped (confidence 4)  [ACE3DA73]
     Copy OK
Track 12
     Filename G:\EAC Temporare\12 Hand Over Eyes.wav
     Pre-gap length  0:00:00.65
     Peak level 98.8 %
     Track quality 100.0 %
     Test CRC 79C232B4
     Copy CRC 79C232B4
     Accurately ripped (confidence 4)  [E8035FE8]
     Copy OK
Track 13
     Filename G:\EAC Temporare\13 Black Light Twilight.wav
     Pre-gap length  0:00:01.10
     Peak level 98.0 %
     Track quality 99.9 %
     Test CRC 4B00B7EC
     Copy CRC 4B00B7EC
     Accurately ripped (confidence 3)  [9D2830B3]
     Copy OK
All tracks accurately ripped
No errors occurred
End of status report

Зарелизено на rutracker.org

на раздаче ВСЕГДА в нерабочее время (вечер, ночь, выходные), в остальное время как получится
Правила, инструкции, FAQ!!!
Торрент  Добавлен [26 июн 2020, 19:45] Скачать торрент Магнет ссылка
Скачать торрент
[ Размер 21.63 КБ / Просмотров 4 ]

Статус
Проверен 
 
Размер  507.64 МБ
Приватный: Нет (DHT включён)
.torrent скачан  0
 


     Отправить личное сообщение
   
Страница 1 из 1
Показать сообщения за:  Поле сортировки  
Начать новую тему Ответить на тему


Сейчас этот форум просматривают: нет зарегистрированных пользователей и гости: 0


Вы не можете начинать темы
Вы не можете отвечать на сообщения
Вы не можете редактировать свои сообщения
Вы не можете удалять свои сообщения
Вы не можете добавлять вложения

Перейти:  
cron