Начать новую тему Ответить на тему
Статистика раздачи
Размер: 426.42 МБ | Добавлен: 26 июн 2020, 17:43 | Скачали: 0
Сидеров: 0  [0 байт/сек]    Личеров: 0  [0 байт/сек]
Пред. тема | След. тема 

Автор
Сообщение

СообщениеДобавлено: 26 июн 2020, 17:43 

Ответить с цитатой 

Das Ich - Cabaret
Жанр: Industrial/Gothic
Год выпуска диска: 2006
Производитель диска: Россия
Аудио кодек: FLAC
Тип рипа: image+.cue
Битрейт аудио: lossless
Продолжительность: 54:40
Трэклист:
01 "Moritat"– 5:08
02 "Atemlos"– 4:32
03 "Macht"– 6:12
04 "Paradigma"– 4:53
05 "Fluch (Ahnung)"– 5:04
06 "Opferzeit"– 4:47
07 "Schwarzes Gift"– 5:37
08 "Nahe"– 5:05
09 "Zuckerbrot & Peitsche"– 5:14
10 "Cabaret"– 8:04
Доп. информация:
Exact Audio Copy V0.99 prebeta 4 from 23. January 2008
Отчёт EAC об извлечении, выполненном 3. апреля 2009, 9:49
Das Ich / Cabaret
Дисковод: _NEC DVD_RW ND-3500AG Adapter: 1 ID: 0
Режим чтения : Достоверность
Использование точного потока : Да
Отключение кэша аудио : Да
Использование указателей C2 : Нет
Коррекция смещения при чтении : 48
Способность читать области Lead-in и Lead-out : Нет
Заполнение пропущенных сэмплов тишиной : Да
Удаление блоков с тишиной в начале и конце : Нет
При вычислениях CRC использовались нулевые сэмплы : Да
Интерфейс : Встроенный Win32-интерфейс для Win NT/2000
Выходной формат : Внутренние WAV-операции
Формат сэмплов : 44.100 Гц; 16 бит; стерео
TOC извлечённого CD
Трек | Старт | Длительность | Начальный сектор | Конечный сектор
---------------------------------------------------------------------
1 | 0:00.00 | 5:08.04 | 0 | 23103
2 | 5:08.04 | 4:32.12 | 23104 | 43515
3 | 9:40.16 | 6:11.72 | 43516 | 71412
4 | 15:52.13 | 4:53.44 | 71413 | 93431
5 | 20:45.57 | 5:04.13 | 93432 | 116244
6 | 25:49.70 | 4:47.56 | 116245 | 137825
7 | 30:37.51 | 5:37.64 | 137826 | 163164
8 | 36:15.40 | 5:05.29 | 163165 | 186068
9 | 41:20.69 | 5:14.70 | 186069 | 209688
10 | 46:35.64 | 8:04.20 | 209689 | 246008
Характеристики диапазона извлечения и сообщения об ошибках
Выбранный диапазон
Имя файла E:\ARXIV\Das Ich - Cabaret.wav
Пиковый уровень 100.0 %
Качество диапазона 99.9 %
CRC копии 5C90C97A
Копирование... OK
Ошибок не произошло
AccurateRip: сводка
Трек 1 точность не определена (достоверность 3) [9616EA27], AccurateRip вернул [11B988DC]
Трек 2 точность не определена (достоверность 3) [4E82BD49], AccurateRip вернул [E5EDDBCD]
Трек 3 точность не определена (достоверность 3) [DADF9E6C], AccurateRip вернул [FB2729A0]
Трек 4 точность не определена (достоверность 3) [54641810], AccurateRip вернул [BCCAD8C0]
Трек 5 точность не определена (достоверность 3) [5D433B45], AccurateRip вернул [5EC1E44D]
Трек 6 точность не определена (достоверность 3) [9E25746E], AccurateRip вернул [EB5F59CE]
Трек 7 точность не определена (достоверность 3) [F1742A8A], AccurateRip вернул [CFEC3DFA]
Трек 8 точность не определена (достоверность 3) [AA1A5C30], AccurateRip вернул [81C68BF8]
Трек 9 точность не определена (достоверность 3) [51BFD50C], AccurateRip вернул [D86E682F]
Трек 10 точность не определена (достоверность 3) [00718686], AccurateRip вернул [9B2B49D2]
Ни один трек не прошёл проверки на точность
В вашей базе может быть иной вариант штамповки диска
Конец отчёта
Рип с российской лицензии от Mystic Empire, само-собой Аккурат рип его не признал
Сканы прилагаются
Правила, инструкции, FAQ!!!
Торрент  Добавлен [26 июн 2020, 17:43] Скачать торрент Магнет ссылка
Скачать торрент
[ Размер 17.74 КБ / Просмотров 3 ]

Статус
Проверен 
 
Размер  426.42 МБ
Приватный: Нет (DHT включён)
.torrent скачан  0
 


     Отправить личное сообщение
   
Страница 1 из 1
Показать сообщения за:  Поле сортировки  
Начать новую тему Ответить на тему


Сейчас этот форум просматривают: нет зарегистрированных пользователей и гости: 0


Вы не можете начинать темы
Вы не можете отвечать на сообщения
Вы не можете редактировать свои сообщения
Вы не можете удалять свои сообщения
Вы не можете добавлять вложения

Перейти:  
cron