Начать новую тему Ответить на тему
Статистика раздачи
Размер: 289.39 МБ | Добавлен: 26 июн 2020, 17:50 | Скачали: 0
Сидеров: 0  [0 байт/сек]    Личеров: 0  [0 байт/сек]
Пред. тема | След. тема 

Автор
Сообщение

СообщениеДобавлено: 26 июн 2020, 17:50 

Ответить с цитатой 

Various Artists - Future Shock


Жанр: Industrial
Год выпуска диска: 1996
Производитель диска: US / Rawkus
Аудио кодек: FLAC
Тип рипа: tracks+.cue
Битрейт аудио: lossless
Продолжительность: 46:20
1. Pitchshifter - Underachiever (0990243003 Mix) (2:57)
2. Pokeweed - Chloraseptic (Sik Mix) (3:09)
3. Terminal Sect - (Million Arrow Stare Mix) (4:44)
4. En Esch - Quiero Todo O Nada (5:00)
5. Sister Machine Gun - Addiction (Speed Freak Mix) (4:11)
6. Godflesh - Sterile Prophet (Empty Messiah Mix) (4:22)
7. Thorn - Spider Boy (3:16)
8. Twig - Righteous (2nd To Last Mix) (4:23)
9. Whorgasm - Sensatorium (Sugarcoma Mix) (3:09)
10. Android Lust - Ultraman (4:19)
11. Mindsett - Fortress (4:23)
12. Dystopia One - Niterider (2:27)
Код:
Exact Audio Copy V0.99 prebeta 4 from 23. January 2008
EAC extraction logfile from 29. November 2009, 12:40
Various / Future Shock
Used drive  : MATSHITADVD-RAM UJ-850S   Adapter: 1  ID: 1
Read mode               : Secure
Utilize accurate stream : Yes
Defeat audio cache      : Yes
Make use of C2 pointers : No
Read offset correction                      : 102
Overread into Lead-In and Lead-Out          : No
Fill up missing offset samples with silence : Yes
Delete leading and trailing silent blocks   : No
Null samples used in CRC calculations       : Yes
Used interface                              : Installed external ASPI interface
Gap handling                                : Appended to previous track
Used output format              : User Defined Encoder
Selected bitrate                : 768 kBit/s
Quality                         : High
Add ID3 tag                     : No
Command line compressor         : C:\Program Files\Exact Audio Copy\flac.exe
Additional command line options : -V -8 -T "artist=%a" -T "title=%t" -T "album=%g" -T "date=%y" -T "tracknumber=%n" -T "genre=%m" %s
TOC of the extracted CD
     Track |   Start  |  Length  | Start sector | End sector
    ---------------------------------------------------------
        1  |  0:00.00 |  2:57.45 |         0    |    13319
        2  |  2:57.45 |  3:09.63 |     13320    |    27557
        3  |  6:07.33 |  4:44.55 |     27558    |    48912
        4  | 10:52.13 |  5:00.40 |     48913    |    71452
        5  | 15:52.53 |  4:11.00 |     71453    |    90277
        6  | 20:03.53 |  4:22.07 |     90278    |   109934
        7  | 24:25.60 |  3:16.60 |    109935    |   124694
        8  | 27:42.45 |  4:23.63 |    124695    |   144482
        9  | 32:06.33 |  3:09.45 |    144483    |   158702
       10  | 35:16.03 |  4:19.07 |    158703    |   178134
       11  | 39:35.10 |  4:23.50 |    178135    |   197909
       12  | 43:58.60 |  2:27.25 |    197910    |   208959
Track  1
     Filename F:\music from Worlock\Various Artists - Future Shock (1996) EAC-FLAC\01 - Pitchshifter - Underachiever (0990243003 Mix).wav
     Pre-gap length  0:00:02.00
     Peak level 96.4 %
     Track quality 100.0 %
     Test CRC 778CE29C
     Copy CRC 778CE29C
     Accurately ripped (confidence 3)  [A76F4B91]
     Copy OK
Track  2
     Filename F:\music from Worlock\Various Artists - Future Shock (1996) EAC-FLAC\02 - Pokeweed - Chloraseptic (Sik Mix).wav
     Pre-gap length  0:00:00.32
     Peak level 97.8 %
     Track quality 100.0 %
     Test CRC 8388C23F
     Copy CRC 8388C23F
     Accurately ripped (confidence 3)  [1E8EB336]
     Copy OK
Track  3
     Filename F:\music from Worlock\Various Artists - Future Shock (1996) EAC-FLAC\03 - Terminal Sect - (Million Arrow Stare Mix).wav
     Pre-gap length  0:00:00.63
     Peak level 98.7 %
     Track quality 100.0 %
     Test CRC 7D7BA20D
     Copy CRC 7D7BA20D
     Accurately ripped (confidence 3)  [F3C9E712]
     Copy OK
Track  4
     Filename F:\music from Worlock\Various Artists - Future Shock (1996) EAC-FLAC\04 - En Esch - Quiero Todo O Nada.wav
     Peak level 100.0 %
     Track quality 100.0 %
     Test CRC DE903B38
     Copy CRC DE903B38
     Accurately ripped (confidence 3)  [600D90D2]
     Copy OK
Track  5
     Filename F:\music from Worlock\Various Artists - Future Shock (1996) EAC-FLAC\05 - Sister Machine Gun - Addiction (Speed Freak Mix).wav
     Pre-gap length  0:00:02.40
     Peak level 95.1 %
     Track quality 100.0 %
     Test CRC 0DFE35FD
     Copy CRC 0DFE35FD
     Accurately ripped (confidence 3)  [8155CFAC]
     Copy OK
Track  6
     Filename F:\music from Worlock\Various Artists - Future Shock (1996) EAC-FLAC\06 - Godflesh - Sterile Prophet (Empty Messiah Mix).wav
     Peak level 90.4 %
     Track quality 100.0 %
     Test CRC E6DBEF71
     Copy CRC E6DBEF71
     Accurately ripped (confidence 3)  [2E8EE882]
     Copy OK
Track  7
     Filename F:\music from Worlock\Various Artists - Future Shock (1996) EAC-FLAC\07 - Thorn - Spider Boy.wav
     Peak level 92.8 %
     Track quality 100.0 %
     Test CRC B6DEF60E
     Copy CRC B6DEF60E
     Accurately ripped (confidence 3)  [BAB65729]
     Copy OK
Track  8
     Filename F:\music from Worlock\Various Artists - Future Shock (1996) EAC-FLAC\08 - Twig - Righteous (2nd To Last Mix).wav
     Peak level 93.0 %
     Track quality 100.0 %
     Test CRC A6CFED27
     Copy CRC A6CFED27
     Accurately ripped (confidence 3)  [AA84C9DF]
     Copy OK
Track  9
     Filename F:\music from Worlock\Various Artists - Future Shock (1996) EAC-FLAC\09 - Whorgasm - Sensatorium (Sugarcoma Mix).wav
     Pre-gap length  0:00:02.00
     Peak level 91.1 %
     Track quality 99.9 %
     Test CRC 997504DD
     Copy CRC 997504DD
     Accurately ripped (confidence 3)  [DC3194BE]
     Copy OK
Track 10
     Filename F:\music from Worlock\Various Artists - Future Shock (1996) EAC-FLAC\10 - Android Lust - Ultraman.wav
     Pre-gap length  0:00:00.65
     Peak level 97.2 %
     Track quality 100.0 %
     Test CRC 79A7AB08
     Copy CRC 79A7AB08
     Accurately ripped (confidence 3)  [D0092B03]
     Copy OK
Track 11
     Filename F:\music from Worlock\Various Artists - Future Shock (1996) EAC-FLAC\11 - Mindsett - Fortress.wav
     Pre-gap length  0:00:01.60
     Peak level 100.0 %
     Track quality 99.9 %
     Test CRC FE9F7484
     Copy CRC FE9F7484
     Accurately ripped (confidence 3)  [638A7B4F]
     Copy OK
Track 12
     Filename F:\music from Worlock\Various Artists - Future Shock (1996) EAC-FLAC\12 - Dystopia One - Niterider.wav
     Pre-gap length  0:00:00.25
     Peak level 92.1 %
     Track quality 100.0 %
     Test CRC 60C8826D
     Copy CRC 60C8826D
     Accurately ripped (confidence 3)  [B4B2C240]
     Copy OK
All tracks accurately ripped
No errors occurred
End of status report
Правила, инструкции, FAQ!!!
Торрент  Добавлен [26 июн 2020, 17:50] Скачать торрент Магнет ссылка
Скачать торрент
[ Размер 13.32 КБ / Просмотров 10 ]

Статус
Проверен 
 
Размер  289.39 МБ
Приватный: Нет (DHT включён)
.torrent скачан  0
 


     Отправить личное сообщение
   
Страница 1 из 1
Показать сообщения за:  Поле сортировки  
Начать новую тему Ответить на тему


Сейчас этот форум просматривают: нет зарегистрированных пользователей и гости: 0


Вы не можете начинать темы
Вы не можете отвечать на сообщения
Вы не можете редактировать свои сообщения
Вы не можете удалять свои сообщения
Вы не можете добавлять вложения

Перейти:  
cron