Начать новую тему Ответить на тему
Статистика раздачи
Размер: 449.67 МБ | Добавлен: 26 июн 2020, 20:36 | Скачали: 0
Сидеров: 0  [0 байт/сек]    Личеров: 0  [0 байт/сек]
Пред. тема | След. тема 

Автор
Сообщение

СообщениеДобавлено: 26 июн 2020, 20:36 

Ответить с цитатой 

Drunkness - Forgotten Times
Жанр: Industrial, ЕВМ
Год выпуска диска: 1999
Производитель диска: Germany
Аудио кодек: FLAC
Тип рипа: image+.cue
Битрейт аудио: lossless
Продолжительность: 01:07:01
Трэклист:
01. In 1999 ..... 5:26
02. (I Would Like To) Live In Paradise 4:00
03. Hol Mich Ein! 4:53
04. Tragedy 4:46
05. Klang Der Seleen 4:12
06. Down 5:05
07. Cassandra 4:08
08. Time Goes By 5:33
09. Versuchung 4:47
10. Expansion 5:38
11. Hol Mich Ein! 8:03
12. Sie Kommen Zuruck 5:04
13. Forgotten Times 4:49
Код:
Exact Audio Copy V0.99 prebeta 5 from 4. May 2009
Отчёт EAC об извлечении, выполненном 21. декабря 2009, 23:14
Drunkness / Forgotten Times
Дисковод: Optiarc DVD RW AD-7201S   Adapter: 2  ID: 1
Режим чтения                 : Достоверность
Использование точного потока : Да
Отключение кэша аудио        : Да
Использование указателей C2  : Нет
Коррекция смещения при чтении                     : 48
Способность читать области Lead-in и Lead-out     : Нет
Заполнение пропущенных сэмплов тишиной            : Да
Удаление блоков с тишиной в начале и конце        : Нет
При вычислениях CRC использовались нулевые сэмплы : Да
Интерфейс                                         : Встроенный Win32-интерфейс для Win NT/2000
Выходной формат : Внутренние WAV-операции
Формат сэмплов  : 44.100 Гц; 16 бит; стерео
TOC извлечённого CD
     Трек |   Старт  | Длительность | Начальный сектор | Конечный сектор
    ---------------------------------------------------------------------
       1  |  0:00.00 |    5:26.25   |           0      |      24474
       2  |  5:26.25 |    4:00.66   |       24475      |      42540
       3  |  9:27.16 |    4:53.29   |       42541      |      64544
       4  | 14:20.45 |    4:46.58   |       64545      |      86052
       5  | 19:07.28 |    4:12.48   |       86053      |     105000
       6  | 23:20.01 |    5:05.04   |      105001      |     127879
       7  | 28:25.05 |    4:08.34   |      127880      |     146513
       8  | 32:33.39 |    5:33.09   |      146514      |     171497
       9  | 38:06.48 |    4:47.59   |      171498      |     193081
      10  | 42:54.32 |    5:38.36   |      193082      |     218467
      11  | 48:32.68 |    8:03.08   |      218468      |     254700
      12  | 56:36.01 |    5:04.70   |      254701      |     277570
      13  | 61:40.71 |    4:49.13   |      277571      |     299258
      14  | 69:02.09 |    0:31.56   |      310659      |     313039
Характеристики диапазона извлечения и сообщения об ошибках
Выбранный диапазон
     Имя файла D:\Раздачи\Drunkness - Forgotten Times\Drunkness - Forgotten Times.wav
     Пиковый уровень 100.0 %
     Качество диапазона 100.0 %
     CRC теста 0AF41D71
     CRC копии 0AF41D71
     Копирование... OK
Ошибок не произошло
Конец отчёта
Код:
Started at: понедельник, 21. 12. 2009. - 23:17.10
1 file found
1 -===- D:\Раздачи\Drunkness - Forgotten Times\Drunkness - Forgotten Times.flac
  Extracted successfully
  Conclusion: this track is CDDA with probability 76%
  Tempfile successfully deleted.
Finished at: понедельник, 21. 12. 2009. - 23:24.06 (operation time: 0:06.56)
Label:Eraser, Nova Tekk
Catalog#:ERA-41, NTD 90941-22
Format:CD, Album
Country:Germany
Released:1999
Genre:Electronic
Style:ЕВМ, Industrial
HQ Scans Full Complete
Правила, инструкции, FAQ!!!
Торрент  Добавлен [26 июн 2020, 20:36] Скачать торрент Магнет ссылка
Скачать торрент
[ Размер 18.46 КБ / Просмотров 18 ]

Статус
Проверен 
 
Размер  449.67 МБ
Приватный: Нет (DHT включён)
.torrent скачан  0
 


     Отправить личное сообщение
   
Страница 1 из 1
Показать сообщения за:  Поле сортировки  
Начать новую тему Ответить на тему


Сейчас этот форум просматривают: нет зарегистрированных пользователей и гости: 0


Вы не можете начинать темы
Вы не можете отвечать на сообщения
Вы не можете редактировать свои сообщения
Вы не можете удалять свои сообщения
Вы не можете добавлять вложения

Перейти:  
cron