Начать новую тему Ответить на тему
Статистика раздачи
Размер: 402.92 МБ | Добавлен: 26 июн 2020, 17:56 | Скачали: 0
Сидеров: 0  [0 байт/сек]    Личеров: 0  [0 байт/сек]
Пред. тема | След. тема 

Автор
Сообщение

СообщениеДобавлено: 26 июн 2020, 17:56 

Ответить с цитатой 

DavaNtage - Broken Influences
Жанр: Industrial, ЕВМ
Год выпуска диска: 2000
Производитель диска: Германия
Аудио кодек: APE
Тип рипа: image+.cue
Битрейт аудио: lossless
Продолжительность: 00:58:23
Трэклист:
01.Faceless Faker
02.Target
03.Slaves
04.Decadence (Feindflug Remix)
05.Faith
06.American Resistance
07.Dying Sphere
08.The Death Of Thule
09.The Passenger
10.Middling
11.Winterdogs
12.Deceit
Код:
Exact Audio Copy V0.99 prebeta 5 from 4. May 2009
Отчёт EAC об извлечении, выполненном 28. июля 2009, 20:07
DavaNtage / Broken Influences
Дисковод: Optiarc DVD RW AD-7201S   Adapter: 1  ID: 1
Режим чтения                 : Достоверность
Использование точного потока : Да
Отключение кэша аудио        : Да
Использование указателей C2  : Нет
Коррекция смещения при чтении                     : 48
Способность читать области Lead-in и Lead-out     : Нет
Заполнение пропущенных сэмплов тишиной            : Да
Удаление блоков с тишиной в начале и конце        : Нет
При вычислениях CRC использовались нулевые сэмплы : Да
Интерфейс                                         : Установленный внешний ASPI-интерфейс
Выходной формат : Внутренние WAV-операции
Формат сэмплов  : 44.100 Гц; 16 бит; стерео
TOC извлечённого CD
     Трек |   Старт  | Длительность | Начальный сектор | Конечный сектор
    ---------------------------------------------------------------------
       1  |  0:00.00 |    6:41.33   |           0      |      30107
       2  |  6:41.33 |    4:39.56   |       30108      |      51088
       3  | 11:21.14 |    5:33.08   |       51089      |      76071
       4  | 16:54.22 |    5:21.33   |       76072      |     100179
       5  | 22:15.55 |    3:03.48   |      100180      |     113952
       6  | 25:19.28 |    5:14.03   |      113953      |     137505
       7  | 30:33.31 |    4:56.28   |      137506      |     159733
       8  | 35:29.59 |    3:58.69   |      159734      |     177652
       9  | 39:28.53 |    6:39.28   |      177653      |     207605
      10  | 46:08.06 |    3:18.46   |      207606      |     222501
      11  | 49:26.52 |    5:43.44   |      222502      |     248270
      12  | 55:10.21 |    3:13.59   |      248271      |     262804
Характеристики диапазона извлечения и сообщения об ошибках
Выбранный диапазон
     Имя файла D:\Documents and Settings\Rodexx\Рабочий стол\davaNtage-Broken Influences\DavaNtage - Broken Influences.wav
     Пиковый уровень 100.0 %
     Качество диапазона 100.0 %
     CRC теста 811B0A84
     CRC копии 811B0A84
     Копирование... OK
Ошибок не произошло
Конец отчёта
 
Label:Black Rain
Catalog#:BR 005
Format:CD, Album
Country:Germany
Released:2000
Genre:Electronic
Style:Industrial
Правила, инструкции, FAQ!!!
Торрент  Добавлен [26 июн 2020, 17:56] Скачать торрент Магнет ссылка
Скачать торрент
[ Размер 16.45 КБ / Просмотров 9 ]

Статус
Проверен 
 
Размер  402.92 МБ
Приватный: Нет (DHT включён)
.torrent скачан  0
 


     Отправить личное сообщение
   
Страница 1 из 1
Показать сообщения за:  Поле сортировки  
Начать новую тему Ответить на тему


Сейчас этот форум просматривают: нет зарегистрированных пользователей и гости: 0


Вы не можете начинать темы
Вы не можете отвечать на сообщения
Вы не можете редактировать свои сообщения
Вы не можете удалять свои сообщения
Вы не можете добавлять вложения

Перейти:  
cron