Начать новую тему Ответить на тему
Статистика раздачи
Размер: 305.54 МБ | Добавлен: 26 июн 2020, 17:39 | Скачали: 0
Сидеров: 1  [0 байт/сек]    Личеров: 0  [0 байт/сек]
Пред. тема | След. тема 

Автор
Сообщение

СообщениеДобавлено: 26 июн 2020, 17:39 

Ответить с цитатой 

Spahn Ranch - Collateral
Жанр: Industrial,Electronic
Год выпуска диска: 1994
Производитель диска: Germany
Аудио кодек: FLAC
Тип рипа: image+.cue
Битрейт аудио: lossless
Продолжительность: 42min 09sek
Трэклист:
1. Wires
2. Succumber
3. Forceps
4. Antibody
5. Cesium
6. Breath And Taxes
7. Stoma
8. Peel
9. Machine Politics
10. Quince
11. ...
Доп. информация: Диск из моей коллекции. Сканы в комплекте.
Exact Audio Copy V0.99 prebeta 5 from 4. May 2009
Отчёт EAC об извлечении, выполненном 2. октября 2009, 15:59
Spahn Ranch / Collateral
Дисковод: TSSTcorpCD/DVDW SH-S182M Adapter: 0 ID: 0
Режим чтения : Достоверность
Использование точного потока : Да
Отключение кэша аудио : Да
Использование указателей C2 : Нет
Коррекция смещения при чтении : 6
Способность читать области Lead-in и Lead-out : Нет
Заполнение пропущенных сэмплов тишиной : Да
Удаление блоков с тишиной в начале и конце : Нет
При вычислениях CRC использовались нулевые сэмплы : Да
Интерфейс : Встроенный Win32-интерфейс для Win NT/2000
Выходной формат : Пользовательский кодировщик
Выбранный битрейт : 768 kBit/s
Качество : Высокий
Добавление ID3-тэга : Нет
Утилита сжатия : C:\Program Files\Exact Audio Copy\FLAC\FLAC.EXE
Дополнительные параметры : -6 -V -T "ARTIST=%a" -T "TITLE=%t" -T "ALBUM=%g" -T "DATE=%y" -T "TRACKNUMBER=%n" -T "GENRE=%m" -T "COMMENT=%e" %s -o %d
TOC извлечённого CD
Трек | Старт | Длительность | Начальный сектор | Конечный сектор
---------------------------------------------------------------------
1 | 0:00.00 | 5:23.50 | 0 | 24274
2 | 5:23.50 | 4:34.22 | 24275 | 44846
3 | 9:57.72 | 4:28.05 | 44847 | 64951
4 | 14:26.02 | 3:19.45 | 64952 | 79921
5 | 17:45.47 | 4:41.35 | 79922 | 101031
6 | 22:27.07 | 4:21.70 | 101032 | 120676
7 | 26:49.02 | 3:39.13 | 120677 | 137114
8 | 30:28.15 | 1:42.05 | 137115 | 144769
9 | 32:10.20 | 3:30.07 | 144770 | 160526
10 | 35:40.27 | 5:26.73 | 160527 | 185049
11 | 41:07.25 | 1:00.02 | 185050 | 189551
Характеристики диапазона извлечения и сообщения об ошибках
Выбранный диапазон
Имя файла C:\Documents and Settings\User\Мои документы\Code\1993 Spahn Ranch Collateral\Spahn Ranch - Collateral.wav
Пиковый уровень 100.0 %
Качество диапазона 99.9 %
CRC теста 6EAC2376
CRC копии 6EAC2376
Копирование... OK
Ошибок не произошло
AccurateRip: сводка
Трек 1 нет в базе данных
Трек 2 нет в базе данных
Трек 3 нет в базе данных
Трек 4 нет в базе данных
Трек 5 нет в базе данных
Трек 6 нет в базе данных
Трек 7 нет в базе данных
Трек 8 нет в базе данных
Трек 9 нет в базе данных
Трек 10 нет в базе данных
Трек 11 нет в базе данных
Ни одного трека нет в базе AccurateRip
Конец отчёта
Правила, инструкции, FAQ!!!
Торрент  Добавлен [26 июн 2020, 17:39] Скачать торрент Магнет ссылка
Скачать торрент
[ Размер 12.71 КБ / Просмотров 15 ]

Статус
Проверен 
 
Размер  305.54 МБ
Приватный: Нет (DHT включён)
.torrent скачан  0
 


     Отправить личное сообщение
   
Страница 1 из 1
Показать сообщения за:  Поле сортировки  
Начать новую тему Ответить на тему


Сейчас этот форум просматривают: нет зарегистрированных пользователей и гости: 0


Вы не можете начинать темы
Вы не можете отвечать на сообщения
Вы не можете редактировать свои сообщения
Вы не можете удалять свои сообщения
Вы не можете добавлять вложения

Перейти:  
cron