Начать новую тему Ответить на тему
Статистика раздачи
Размер: 574.47 МБ | Добавлен: 26 июн 2020, 17:34 | Скачали: 0
Сидеров: 0  [0 байт/сек]    Личеров: 0  [0 байт/сек]
Пред. тема | След. тема 

Автор
Сообщение

СообщениеДобавлено: 26 июн 2020, 17:34 

Ответить с цитатой 

Aghast View - Vapor Eyes

Жанр: Industrial, Electronic, EBM
Носитель: CD
Страна-производитель диска: Brazil
Год выпуска диска: 1997
Дата выхода оригинального издания: 1997
Тип издания: CD, EP, Compilation
Издатель (лейбл): Cri Du Chat, Eldorado
Номер по каталогу: CDC 0022, 946100
Страна исполнителя (группы): Brazil
Аудиокодек: FLAC (*.flac)
Тип рипа: image+.cue
Битрейт аудио: lossless
Продолжительность: 01:05:44
Источник (релизер): Собственный рип
Наличие сканов в содержимом раздачи: да, PNG 600dpi
Треклист
01. Vaporize (Original Mx) [05:23]
02. Torrent Haze (Rapid Torture Rmx) [05:37]
03. Vaporize (Solid State Mx) [04:47]
04. Torrent Haze (Original Mx) [04:15]
05. Vaporize (:Wumpscut: Rmx) [05:07]
06. Torrent Haze (No Trial Rmx) [05:07]
07. Sub/Version [05:21]
08. Fade Out (No Doubt Rmx) [05:16]
09. The Sun Rises As We Speak [03:32]
10. Chemical Warfare (Cyanide Mixx) [05:07]
11. Chemical Warfare (Sublethal Asphyxiation) [04:30]
12. Chemical Warfare (Overchemical Toxemia) [04:01]
13. Collateral Effects [04:08]
14. Collateral Effects Of Chemical War [03:26]
Код:
 Exact Audio Copy V1.0 beta 4 from 7. December 2014
Отчёт EAC об извлечении, выполненном 4. января 2015, 16:43
Aghast View / Vapor Eyes  (EP, CDC 0022, 946100)
Дисковод: PIONEER BD-RW   BDR-206   Adapter: 1  ID: 0
Режим чтения                 : Достоверность
Использование точного потока : Да
Отключение кэша аудио        : Да
Использование указателей C2  : Нет
Коррекция смещения при чтении                     : 667
Способность читать области Lead-in и Lead-out     : Нет
Заполнение пропущенных сэмплов тишиной            : Да
Удаление блоков с тишиной в начале и конце        : Нет
При вычислениях CRC использовались нулевые сэмплы : Да
Интерфейс                                         : Установленный внешний ASPI-интерфейс
Выходной формат          : Пользовательский кодировщик
Выбранный битрейт        : 1024 kBit/s
Качество                 : Высокий
Добавление ID3-тега      : Нет
Утилита сжатия           : C:\Program Files (x86)\Exact Audio Copy\FLAC\FLAC.EXE
Дополнительные параметры : -T "COMMENT=Ripped by SergeyJD"-8 -V -T "ARTIST=%artist%" -T "TITLE=%title%" -T "ALBUM=%albumtitle%" -T "DATE=%year%" -T "TRACKNUMBER=%tracknr%" -T "GENRE=%genre%" -T "COMMENT=%comment%" -T "BAND=%albuminterpret%" -T "ALBUMARTIST=%albuminterpret%" -T "COMPOSER=%composer%" %haslyrics%--tag-from-file=LYRICS="%lyricsfile%"%haslyrics% -T "DISCNUMBER=%cdnumber%" -T "TOTALDISCS=%totalcds%" -T "TOTALTRACKS=%numtracks%" %hascover%--picture="%coverfile%"%hascover% %source% -o %dest%
TOC извлечённого CD
     Трек |   Старт  | Длительность | Начальный сектор | Конечный сектор
    ---------------------------------------------------------------------
       1  |  0:00.00 |    5:23.37   |           0      |      24261
       2  |  5:23.37 |    5:37.38   |       24262      |      49574
       3  | 11:01.00 |    4:47.30   |       49575      |      71129
       4  | 15:48.30 |    4:15.55   |       71130      |      90309
       5  | 20:04.10 |    5:07.25   |       90310      |     113359
       6  | 25:11.35 |    5:07.67   |      113360      |     136451
       7  | 30:19.27 |    5:21.68   |      136452      |     160594
       8  | 35:41.20 |    5:16.27   |      160595      |     184321
       9  | 40:57.47 |    3:32.60   |      184322      |     200281
      10  | 44:30.32 |    5:07.70   |      200282      |     223376
      11  | 49:38.27 |    4:30.35   |      223377      |     243661
      12  | 54:08.62 |    4:01.15   |      243662      |     261751
      13  | 58:10.02 |    4:08.30   |      261752      |     280381
      14  | 62:18.32 |    3:26.43   |      280382      |     295874
Характеристики диапазона извлечения и сообщения об ошибках
Выбранный диапазон
     Имя файла D:\РАЗДАЧИ!!!!\Aghast View - Vapor Eyes (EP, Comp. CDC 0022, 946100) - 1997\Aghast View - Vapor Eyes  (EP, CDC 0022, 946100).wav
     Пиковый уровень 94.6 %
     Скорость извлечения 7.9 X
     Качество диапазона 100.0 %
     CRC теста 469F4542
     CRC копии 469F4542
     Копирование... OK
Ошибок не произошло
AccurateRip: сводка
Трек  1  : извлечено точно (доверие 3)  [BA37CD79]  (AR v2)
Трек  2  : извлечено точно (доверие 3)  [2B2985F1]  (AR v2)
Трек  3  : извлечено точно (доверие 3)  [57C0DA9C]  (AR v2)
Трек  4  : извлечено точно (доверие 3)  [7A05F286]  (AR v2)
Трек  5  : извлечено точно (доверие 3)  [85EEB180]  (AR v2)
Трек  6  : извлечено точно (доверие 3)  [909932F5]  (AR v2)
Трек  7  : извлечено точно (доверие 3)  [E7575FE8]  (AR v2)
Трек  8  : извлечено точно (доверие 2)  [73151BE3]  (AR v2)
Трек  9  : извлечено точно (доверие 3)  [517CC0DB]  (AR v2)
Трек 10  : извлечено точно (доверие 3)  [8B219194]  (AR v2)
Трек 11  : извлечено точно (доверие 3)  [ADFCD386]  (AR v2)
Трек 12  : извлечено точно (доверие 3)  [FAF7DD28]  (AR v2)
Трек 13  : извлечено точно (доверие 3)  [B90DD9FD]  (AR v2)
Трек 14  : извлечено точно (доверие 3)  [FEB11E59]  (AR v2)
Все треки извлечены точно
Конец отчёта
---- CUETools DB Plugin V2.1.4
[CTDB TOCID: e9Wj8KWc41F899_kdQTHVgGb070-] found
Submit result: already submitted
Track | CTDB Status
  1   | (3/3) Accurately ripped
  2   | (3/3) Accurately ripped
  3   | (3/3) Accurately ripped
  4   | (3/3) Accurately ripped
  5   | (3/3) Accurately ripped
  6   | (2/3) Accurately ripped
  7   | (3/3) Accurately ripped
  8   | (2/3) Accurately ripped
  9   | (3/3) Accurately ripped
 10   | (3/3) Accurately ripped
 11   | (3/3) Accurately ripped
 12   | (3/3) Accurately ripped
 13   | (3/3) Accurately ripped
 14   | (3/3) Accurately ripped
==== Контрольная сумма отчёта 98EF0B978E21B5E20409ACE576744EBBB493BA6A52C5DAED29FE23C786795E0B ====
   
Код:
REM GENRE "EBM, Industrial"
REM DATE 1997
REM DISCID B40F690E
REM COMMENT "ExactAudioCopy v1.0b4"
PERFORMER "Aghast View"
TITLE "Vapor Eyes  (EP, CDC 0022, 946100)"
FILE "Aghast View - Vapor Eyes  (EP, CDC 0022, 946100).flac" WAVE
  TRACK 01 AUDIO
    TITLE "Vaporize (Original Mx)"
    PERFORMER "Aghast View"
    INDEX 01 00:00:00
  TRACK 02 AUDIO
    TITLE "Torrent Haze (Rapid Torture Rmx)"
    PERFORMER "Aghast View"
    INDEX 00 05:21:62
    INDEX 01 05:23:37
  TRACK 03 AUDIO
    TITLE "Vaporize (Solid State Mx)"
    PERFORMER "Aghast View"
    INDEX 00 10:59:22
    INDEX 01 11:01:00
  TRACK 04 AUDIO
    TITLE "Torrent Haze (Original Mx)"
    PERFORMER "Aghast View"
    INDEX 00 15:46:62
    INDEX 01 15:48:30
  TRACK 05 AUDIO
    TITLE "Vaporize (:Wumpscut: Rmx)"
    PERFORMER "Aghast View"
    INDEX 00 20:02:42
    INDEX 01 20:04:10
  TRACK 06 AUDIO
    TITLE "Torrent Haze (No Trial Rmx)"
    PERFORMER "Aghast View"
    INDEX 00 25:09:67
    INDEX 01 25:11:35
  TRACK 07 AUDIO
    TITLE "Sub/Version"
    PERFORMER "Aghast View"
    INDEX 00 30:17:47
    INDEX 01 30:19:27
  TRACK 08 AUDIO
    TITLE "Fade Out (No Doubt Rmx)"
    PERFORMER "Aghast View"
    INDEX 00 35:39:50
    INDEX 01 35:41:20
  TRACK 09 AUDIO
    TITLE "The Sun Rises As We Speak"
    PERFORMER "Aghast View"
    INDEX 00 40:56:02
    INDEX 01 40:57:47
  TRACK 10 AUDIO
    TITLE "Chemical Warfare (Cyanide Mixx)"
    PERFORMER "Aghast View"
    INDEX 00 44:28:65
    INDEX 01 44:30:32
  TRACK 11 AUDIO
    TITLE "Chemical Warfare (Sublethal Asphyxiation)"
    PERFORMER "Aghast View"
    INDEX 00 49:36:60
    INDEX 01 49:38:27
  TRACK 12 AUDIO
    TITLE "Chemical Warfare (Overchemical Toxemia)"
    PERFORMER "Aghast View"
    INDEX 00 54:07:20
    INDEX 01 54:08:62
  TRACK 13 AUDIO
    TITLE "Collateral Effects"
    PERFORMER "Aghast View"
    INDEX 00 58:08:34
    INDEX 01 58:10:02
  TRACK 14 AUDIO
    TITLE "Collateral Effects Of Chemical War"
    PERFORMER "Aghast View"
    INDEX 00 62:16:65
    INDEX 01 62:18:32
 
Код:
 -----------------------
DON'T MODIFY THIS FILE
-----------------------
PERFORMER: auCDtect Task Manager, ver. 1.5.1RC6 build 1.5.1.7
Copyright (c) 2008-2010 y-soft. All rights reserved
[url=http://y-soft.org]http://y-soft.org[/url]
ANALYZER: auCDtect: CD records authenticity detector, version 0.8.2
Copyright (c) 2004 Oleg Berngardt. All rights reserved.
Copyright (c) 2004 Alexander Djourik. All rights reserved.
FILE: Aghast View - Vapor Eyes  (EP, CDC 0022, 946100).flac
  Size: 483329016 Hash: DA1670D3FD611FEB8EED676F96D04014 Accuracy: -m0
  Conclusion: CDDA 100%
  Signature: 57123028F99BCE761FFC057BAE6D4C754B2A2781
     
Код:
foobar2000 1.2.3 / Замер динамического диапазона (DR) 1.1.1
Дата отчёта: 2015-01-04 16:48:01
--------------------------------------------------------------------------------
Анализ:   Aghast View / Vapor Eyes  (EP, CDC 0022, 946100)
--------------------------------------------------------------------------------
DR         Пики          RMS        Продолжительность трека
--------------------------------------------------------------------------------
DR8       -0.48 дБ   -11.02 дБ      5:23 01-Vaporize (Original Mx)
DR9       -0.48 дБ   -11.10 дБ      5:38 02-Torrent Haze (Rapid Torture Rmx)
DR7       -0.48 дБ    -9.33 дБ      4:47 03-Vaporize (Solid State Mx)
DR8       -0.48 дБ    -9.88 дБ      4:16 04-Torrent Haze (Original Mx)
DR9       -0.48 дБ   -12.68 дБ      5:07 05-Vaporize (:Wumpscut: Rmx)
DR6       -0.48 дБ    -8.66 дБ      5:08 06-Torrent Haze (No Trial Rmx)
DR6       -0.48 дБ    -8.57 дБ      5:22 07-Sub/Version
DR7       -0.48 дБ    -9.08 дБ      5:16 08-Fade Out (No Doubt Rmx)
DR8       -0.48 дБ   -11.10 дБ      3:33 09-The Sun Rises As We Speak
DR6       -0.48 дБ    -7.57 дБ      5:08 10-Chemical Warfare (Cyanide Mixx)
DR10      -0.48 дБ   -12.34 дБ      4:30 11-Chemical Warfare (Sublethal Asphyxiation)
DR6       -0.48 дБ    -7.67 дБ      4:01 12-Chemical Warfare (Overchemical Toxemia)
DR7       -0.80 дБ    -8.95 дБ      4:08 13-Collateral Effects
DR7       -0.48 дБ   -11.30 дБ      3:27 14-Collateral Effects Of Chemical War
--------------------------------------------------------------------------------
Количество треков: 14
Реальные значения DR: DR7
Частота:  44100 Гц
Каналов:  2
Разрядность:   16
Битрейт:  980 кбит/с
Кодек:   FLAC
================================================================================
     


Правила, инструкции, FAQ!!!
Торрент  Добавлен [26 июн 2020, 17:34] Скачать торрент Магнет ссылка
Скачать торрент
[ Размер 12.3 КБ / Просмотров 10 ]

Статус
Проверен 
 
Размер  574.47 МБ
Приватный: Нет (DHT включён)
.torrent скачан  0
 


     Отправить личное сообщение
   
Страница 1 из 1
Показать сообщения за:  Поле сортировки  
Начать новую тему Ответить на тему


Сейчас этот форум просматривают: нет зарегистрированных пользователей и гости: 0


Вы не можете начинать темы
Вы не можете отвечать на сообщения
Вы не можете редактировать свои сообщения
Вы не можете удалять свои сообщения
Вы не можете добавлять вложения

Перейти:  
cron