Начать новую тему Ответить на тему
Статистика раздачи
Размер: 536.34 МБ | Добавлен: 26 июн 2020, 19:53 | Скачали: 0
Сидеров: 0  [0 байт/сек]    Личеров: 0  [0 байт/сек]
Пред. тема | След. тема 

Автор
Сообщение

СообщениеДобавлено: 26 июн 2020, 19:53 

Ответить с цитатой 

Xorcist - Phantoms
Жанр: Industrial, Electro
Год выпуска диска: 1994
Производитель диска: US
Аудио кодек: FLAC
Тип рипа: image+.cue
Битрейт аудио: lossless
Продолжительность: 01:05:08

Label: 21st Circuitry
Catalog#: 21C.CD07
Format: CD, Album
Country: US
Released: 1994
Genre: Electronic
Style: Industrial, Electro
01 Bitchend (8:22)
02 The Gift (4:25)
03 Shortwave (0:44)
04 Iron Helix (5:55)
05 Be With Me (5:17)
06 Club Life (0:55)
07 Christy (7:09)
08 Is Love? (9:12)
09 I Just Want To Learn (10:48)
10 The Harmonic Convergence (11:58)
11 Untitled (0:18)
Exact Audio Copy V0.99 prebeta 4 from 23. January 2008
Отчёт EAC об извлечении, выполненном 3. августа 2009, 18:46
Xorcist / Phantoms
Дисковод: PIONEER DVD-RW DVR-215 Adapter: 2 ID: 0
Режим чтения : Достоверность
Использование точного потока : Да
Отключение кэша аудио : Да
Использование указателей C2 : Нет
Коррекция смещения при чтении : 48
Способность читать области Lead-in и Lead-out : Нет
Заполнение пропущенных сэмплов тишиной : Да
Удаление блоков с тишиной в начале и конце : Нет
При вычислениях CRC использовались нулевые сэмплы : Да
Интерфейс : Установленный внешний ASPI-интерфейс
Выходной формат : Пользовательский кодировщик
Выбранный битрейт : 1024 kBit/s
Качество : Высокий
Добавление ID3-тэга : Нет
Утилита сжатия : C:\Program Files\Exact Audio Copy\FLAC\FLAC.EXE
Дополнительные параметры : -8 -V -T "ARTIST=%a" -T "TITLE=%t" -T "ALBUM=%g" -T "DATE=%y" -T "TRACKNUMBER=%n" -T "GENRE=%m" -T "COMMENT=%e" %s -o %d
TOC извлечённого CD
Трек | Старт | Длительность | Начальный сектор | Конечный сектор
---------------------------------------------------------------------
1 | 0:00.32 | 8:22.23 | 32 | 37704
2 | 8:22.55 | 4:25.62 | 37705 | 57641
3 | 12:48.42 | 0:44.50 | 57642 | 60991
4 | 13:33.17 | 5:55.28 | 60992 | 87644
5 | 19:28.45 | 5:17.42 | 87645 | 111461
6 | 24:46.12 | 0:55.35 | 111462 | 115621
7 | 25:41.47 | 7:09.03 | 115622 | 147799
8 | 32:50.50 | 9:12.07 | 147800 | 189206
9 | 42:02.57 | 10:48.43 | 189207 | 237849
10 | 52:51.25 | 11:58.42 | 237850 | 291741
11 | 64:49.67 | 0:18.55 | 291742 | 293146
Характеристики диапазона извлечения и сообщения об ошибках
Выбранный диапазон
Имя файла G:\РАЗДАЧИ!!!! (rutracker.org)\Xorcist - 1994 - Phantoms\Xorcist - Phantoms.wav
Пиковый уровень 100.0 %
Качество диапазона 99.9 %
CRC теста 81C4204A
CRC копии 81C4204A
Копирование... OK
Ошибок не произошло
AccurateRip: сводка
Трек 1 точность не определена (достоверность 4) [DBA47A7B], AccurateRip вернул [403BDA43]
Трек 2 точность не определена (достоверность 4) [4CFBACCF], AccurateRip вернул [34A7F4FF]
Трек 3 точность не определена (достоверность 4) [5D53156A], AccurateRip вернул [4F0AF102]
Трек 4 точность не определена (достоверность 4) [AA8D2156], AccurateRip вернул [880F92C6]
Трек 5 точность не определена (достоверность 4) [30565DFE], AccurateRip вернул [693C1F6E]
Трек 6 точность не определена (достоверность 4) [CA1DBED5], AccurateRip вернул [0E455548]
Трек 7 точность не определена (достоверность 3) [14642D19], AccurateRip вернул [125F1C66]
Трек 8 точность не определена (достоверность 3) [D222E75E], AccurateRip вернул [E4B54BFE]
Трек 9 точность не определена (достоверность 3) [4F039154], AccurateRip вернул [8A239CB4]
Трек 10 точность не определена (достоверность 4) [4A6E8391], AccurateRip вернул [C0841637]
Трек 11 точность не определена (достоверность 4) [D43415BA], AccurateRip вернул [00DD9627]
Ни один трек не прошёл проверки на точность
В вашей базе может быть иной вариант штамповки диска
Конец отчёта
AUDIOCHECKER v2.0 beta (build 457) - by Dester - opdester@freemail.hu
~~~~~~~~~~~~~~~~~~~~~~~~~~~~~~~~~~
-=== DO NOT EDIT THIS FILE! ===-
Path: ...\Xorcist - 1994 - Phantoms
1 -=- Xorcist - Phantoms.flac -=- CDDA (100%)
16565924
Информация на официальном сайте: http://www.xorcist.com/
И еще инфа: http://www.answers.com/topic/xorcist
Прилагаются все сканы отличного качества!!!
Правила, инструкции, FAQ!!!
Торрент  Добавлен [26 июн 2020, 19:53] Скачать торрент Магнет ссылка
Скачать торрент
[ Размер 11.57 КБ / Просмотров 3 ]

Статус
Проверен 
 
Размер  536.34 МБ
Приватный: Нет (DHT включён)
.torrent скачан  0
 


     Отправить личное сообщение
   
Страница 1 из 1
Показать сообщения за:  Поле сортировки  
Начать новую тему Ответить на тему


Сейчас этот форум просматривают: нет зарегистрированных пользователей и гости: 0


Вы не можете начинать темы
Вы не можете отвечать на сообщения
Вы не можете редактировать свои сообщения
Вы не можете удалять свои сообщения
Вы не можете добавлять вложения

Перейти:  
cron