Начать новую тему Ответить на тему
Статистика раздачи
Размер: 484.63 МБ | Добавлен: 26 июн 2020, 20:14 | Скачали: 0
Сидеров: 0  [0 байт/сек]    Личеров: 0  [0 байт/сек]
Пред. тема | След. тема 

Автор
Сообщение

СообщениеДобавлено: 26 июн 2020, 20:14 

Ответить с цитатой 

Wumpscut - The Mesner Tracks
Жанр: Industrial / Electro
Год выпуска диска: 1995
Производитель диска: Germany
Аудио кодек: APE
Тип рипа: image+.cue
Битрейт аудио: lossless
Продолжительность: 69:09
Трэклист:
1 Overtures (Remastered) (1:34)
2 Mother (Maternal Instinct) (8:41)
3 Ain't It Mad, Yet (B-Mix) (3:27) Co-producer - Betonk* Vocals - Clone 137
4 War Combattery 2 (Fixed) (4:57)
5 Lindbergh (Ocean Part) (4:09)
6 Black Death (Muted Concept) (4:55)
7 In The Night (Remastered) (4:32)
8 Running Killer (Remastered) (4:18)
9 Crate (T-1-Theme, Voiceless) (2:48)
10 UK Decay (Remastered) (2:37) Lyrics By - P·A·L
11 Cold Cell (Remastered) (3:23) Vocals - Selene
12 Cry Weisenstein Cry (Mäxmix) (4:26)
13 Tell Me Why (First Takes) (4:03)
14 Ceremony (Remastered) (4:04)
15 Jesus Gone (Remastered) (11:08) Sampler - Ernst Horn
Доп. информация: Beton Kopf Media; bkm etah 03
Original booklet credit: Anal-logic-ally executed and digitally remastered by Rudy R. at His Master's Studio (LA) in 1995.
Код:
Exact Audio Copy V0.99 prebeta 4 from 23. January 2008
EAC extraction logfile from 4. December 2008, 0:24
Wumpscut / The Mesner Tracks
Used drive  : TEAC    DV-W520GS   Adapter: 5  ID: 0
Read mode               : Secure
Utilize accurate stream : Yes
Defeat audio cache      : Yes
Make use of C2 pointers : No
Read offset correction                      : 6
Overread into Lead-In and Lead-Out          : No
Fill up missing offset samples with silence : Yes
Delete leading and trailing silent blocks   : No
Null samples used in CRC calculations       : Yes
Used interface                              : Installed external ASPI interface
Used output format : Internal WAV Routines
Sample format      : 44.100 Hz; 16 Bit; Stereo
TOC of the extracted CD
     Track |   Start  |  Length  | Start sector | End sector
    ---------------------------------------------------------
        1  |  0:00.00 |  1:34.32 |         0  |        7081
        2  |  1:34.32 |  8:41.74 |      7082  |       46230
        3  | 10:16.31 |  3:27.55 |     46231  |       61810
        4  | 13:44.11 |  4:57.19 |     61811  |       84104
        5  | 18:41.30 |  4:09.05 |     84105  |      102784
        6  | 22:50.35 |  4:55.16 |    102785  |      124925
        7  | 27:45.51 |  4:32.28 |    124926  |      145353
        8  | 32:18.04 |  4:18.19 |    145354  |      164722
        9  | 36:36.23 |  2:48.44 |    164723  |      177366
       10  | 39:24.67 |  2:37.05 |    177367  |      189146
       11  | 42:01.72 |  3:23.47 |    189147  |      204418
       12  | 45:25.44 |  4:26.68 |    204419  |      224436
       13  | 49:52.37 |  4:03.54 |    224437  |      242715
       14  | 53:56.16 |  4:04.39 |    242716  |      261054
       15  | 58:00.55 |  1:08.38 |    261055  |      311192
Range status and errors
Selected range
   Filename J:\Wumpscut - The Mesner Tracks\CDImage.wav
   Peak level 97.7 %
   Range quality 100.0 %
   Test CRC 2F2893B5
   Copy CRC 2F2893B5
   Copy OK
No errors occurred
AccurateRip summary
Track  1  accurately ripped (confidence 2)  [C7A26C59]
Track  2  accurately ripped (confidence 2)  [7F304957]
Track  3  accurately ripped (confidence 2)  [A0A2C615]
Track  4  accurately ripped (confidence 2)  [84E35E1D]
Track  5  accurately ripped (confidence 2)  [672E628D]
Track  6  accurately ripped (confidence 2)  [2AFFBB7B]
Track  7  accurately ripped (confidence 2)  [61459668]
Track  8  accurately ripped (confidence 2)  [43F11B20]
Track  9  accurately ripped (confidence 2)  [18B42AEF]
Track 10  accurately ripped (confidence 2)  [455B99F0]
Track 11  accurately ripped (confidence 2)  [A891B662]
Track 12  accurately ripped (confidence 2)  [C8BC1A98]
Track 13  accurately ripped (confidence 2)  [498CC771]
Track 14  accurately ripped (confidence 2)  [7AECE485]
Track 15  accurately ripped (confidence 2)  [EEACF6BA]
All tracks accurately ripped
End of status report
Код:
AUDIOCHECKER v2.0 beta (build 457) - by Dester - opdester@freemail.hu
~~~~~~~~~~~~~~~~~~~~~~~~~~~~~~~~~~
-=== DO NOT EDIT THIS FILE! ===-
Path: ...\Wumpscut - The Mesner Tracks
01 -=- CDImage.wav -=- CDDA (100%)
190127764
Правила, инструкции, FAQ!!!
Торрент  Добавлен [26 июн 2020, 20:14] Скачать торрент Магнет ссылка
Скачать торрент
[ Размер 19.84 КБ / Просмотров 5 ]

Статус
Проверен 
 
Размер  484.63 МБ
Приватный: Нет (DHT включён)
.torrent скачан  0
 


     Отправить личное сообщение
   
Страница 1 из 1
Показать сообщения за:  Поле сортировки  
Начать новую тему Ответить на тему


Сейчас этот форум просматривают: нет зарегистрированных пользователей и гости: 0


Вы не можете начинать темы
Вы не можете отвечать на сообщения
Вы не можете редактировать свои сообщения
Вы не можете удалять свои сообщения
Вы не можете добавлять вложения

Перейти:  
cron