Начать новую тему Ответить на тему
Статистика раздачи
Размер: 388.83 МБ | Добавлен: 26 июн 2020, 17:39 | Скачали: 0
Сидеров: 0  [0 байт/сек]    Личеров: 0  [0 байт/сек]
Пред. тема | След. тема 

Автор
Сообщение

СообщениеДобавлено: 26 июн 2020, 17:39 

Ответить с цитатой 

The Azoic - The Divine Suffering
Жанр: Industrial, Electro
Носитель: CD
Страна-производитель диска: U.S.
Год издания: 1997
Издатель (лейбл): Worm Records
Номер по каталогу: NONE
Страна: U.S.
Аудиокодек: FLAC (*.flac)
Тип рипа: image+.cue
Битрейт аудио: lossless
Продолжительность: 1:05:03
Источник (релизер): Rekhyt
Наличие сканов в содержимом раздачи: нет
Треклист:
1. Beginning (2:56)
2. Pure Pleasure (4:26)
3. I Tried To Warn You (4:58)
4. No Strength To Feel (3:39)
5. Inside (5:18)
6. Serenity Destroyed (6:03)
7. Violation (3:56)
8. Thorns (3:36)
9. Godaphile (3:50)
10. Talking To A Ghost (5:00)
11. No One Is Listening (5:27)
12. Alone (5:17)
13. Transitions (10:38)
Код:
Exact Audio Copy V1.0 beta 3 from 29. August 2011
EAC extraction logfile from 18. October 2012, 18:44
The Azoic / The Divine Suffering
Used drive  : ATAPI   iHAS424   B   Adapter: 3  ID: 0
Read mode               : Secure
Utilize accurate stream : Yes
Defeat audio cache      : Yes
Make use of C2 pointers : No
Read offset correction                      : 6
Overread into Lead-In and Lead-Out          : No
Fill up missing offset samples with silence : Yes
Delete leading and trailing silent blocks   : No
Null samples used in CRC calculations       : Yes
Used interface                              : Native Win32 interface for Win NT & 2000
Used output format              : User Defined Encoder
Selected bitrate                : 1024 kBit/s
Quality                         : High
Add ID3 tag                     : No
Command line compressor         : C:\Program Files (x86)\Exact Audio Copy\FLAC\FLAC.EXE
Additional command line options : -V -8 -T "Date=%year%" -T "Genre=%genre%" %source%
TOC of the extracted CD
     Track |   Start  |  Length  | Start sector | End sector
    ---------------------------------------------------------
        1  |  0:00.00 |  2:55.64 |         0    |    13188
        2  |  2:55.64 |  4:26.06 |     13189    |    33144
        3  |  7:21.70 |  4:57.39 |     33145    |    55458
        4  | 12:19.34 |  3:39.29 |     55459    |    71912
        5  | 15:58.63 |  5:17.64 |     71913    |    95751
        6  | 21:16.52 |  6:03.34 |     95752    |   123010
        7  | 27:20.11 |  3:55.44 |    123011    |   140679
        8  | 31:15.55 |  3:35.70 |    140680    |   156874
        9  | 34:51.50 |  3:49.66 |    156875    |   174115
       10  | 38:41.41 |  4:59.60 |    174116    |   196600
       11  | 43:41.26 |  5:27.09 |    196601    |   221134
       12  | 49:08.35 |  5:16.64 |    221135    |   244898
       13  | 54:25.24 | 10:38.19 |    244899    |   292767
Range status and errors
Selected range
     Filename E:\Downloads\The Azoic\The Azoic - The Divine Suffering\The Azoic - The Divine Suffering.wav
     Peak level 100.0 %
     Extraction speed 4.8 X
     Range quality 100.0 %
     Test CRC 8CBFE32A
     Copy CRC 8CBFE32A
     Copy OK
No errors occurred
AccurateRip summary
Track  1  accurately ripped (confidence 2)  [5B8C6875]  (AR v1)
Track  2  accurately ripped (confidence 2)  [AB516F72]  (AR v1)
Track  3  accurately ripped (confidence 2)  [2E4A981F]  (AR v1)
Track  4  accurately ripped (confidence 2)  [7F9A801A]  (AR v1)
Track  5  accurately ripped (confidence 2)  [863E0F9E]  (AR v1)
Track  6  accurately ripped (confidence 2)  [9DED0491]  (AR v1)
Track  7  accurately ripped (confidence 2)  [A22BC11D]  (AR v1)
Track  8  accurately ripped (confidence 2)  [5F92D90C]  (AR v1)
Track  9  accurately ripped (confidence 2)  [D9BFE91F]  (AR v1)
Track 10  accurately ripped (confidence 2)  [3D169823]  (AR v1)
Track 11  accurately ripped (confidence 2)  [BEE4F5BA]  (AR v1)
Track 12  accurately ripped (confidence 2)  [AAB61E95]  (AR v1)
Track 13  accurately ripped (confidence 2)  [1A9AA383]  (AR v1)
All tracks accurately ripped
End of status report
==== Log checksum 9C723F6E4692ECED12346270E1AA15994A3C41748D29E8D56F6B2CB20475E4B3 ====
Код:
REM DATE 1997
REM DISCID B40F3F0D
REM COMMENT "ExactAudioCopy v1.0b3"
PERFORMER "The Azoic"
TITLE "The Divine Suffering"
FILE "The Azoic - The Divine Suffering.flac" WAVE
  TRACK 01 AUDIO
    TITLE "Beginning"
    PERFORMER "The Azoic"
    INDEX 01 00:00:00
  TRACK 02 AUDIO
    TITLE "Pure Pleasure"
    PERFORMER "The Azoic"
    INDEX 01 02:55:64
  TRACK 03 AUDIO
    TITLE "I Tried To Warn You"
    PERFORMER "The Azoic"
    INDEX 01 07:21:70
  TRACK 04 AUDIO
    TITLE "No Strength To Feel"
    PERFORMER "The Azoic"
    INDEX 01 12:19:34
  TRACK 05 AUDIO
    TITLE "Inside"
    PERFORMER "The Azoic"
    INDEX 01 15:58:63
  TRACK 06 AUDIO
    TITLE "Serenity Destroyed"
    PERFORMER "The Azoic"
    INDEX 01 21:16:52
  TRACK 07 AUDIO
    TITLE "Violation"
    PERFORMER "The Azoic"
    INDEX 01 27:20:11
  TRACK 08 AUDIO
    TITLE "Thorns"
    PERFORMER "The Azoic"
    INDEX 01 31:15:55
  TRACK 09 AUDIO
    TITLE "Godaphile"
    PERFORMER "The Azoic"
    INDEX 01 34:51:50
  TRACK 10 AUDIO
    TITLE "Talking To A Ghost"
    PERFORMER "The Azoic"
    INDEX 01 38:41:41
  TRACK 11 AUDIO
    TITLE "No One Is Listening"
    PERFORMER "The Azoic"
    INDEX 01 43:41:26
  TRACK 12 AUDIO
    TITLE "Alone"
    PERFORMER "The Azoic"
    INDEX 01 49:08:35
  TRACK 13 AUDIO
    TITLE "Transitions"
    PERFORMER "The Azoic"
    INDEX 01 54:25:24
Код:
AUDIOCHECKER v2.0 beta (build 457) - by Dester - opdester@freemail.hu
~~~~~~~~~~~~~~~~~~~~~~~~~~~~~~~~~~
-=== DO NOT EDIT THIS FILE! ===-
Path: ...\The Azoic - The Divine Suffering
1 -=- The Azoic - The Divine Suffering.flac -=- CDDA (100%)
108558036
Правила, инструкции, FAQ!!!
Торрент  Добавлен [26 июн 2020, 17:39] Скачать торрент Магнет ссылка
Скачать торрент
[ Размер 15.88 КБ / Просмотров 15 ]

Статус
Проверен 
 
Размер  388.83 МБ
Приватный: Нет (DHT включён)
.torrent скачан  0
 


     Отправить личное сообщение
   
Страница 1 из 1
Показать сообщения за:  Поле сортировки  
Начать новую тему Ответить на тему


Сейчас этот форум просматривают: нет зарегистрированных пользователей и гости: 0


Вы не можете начинать темы
Вы не можете отвечать на сообщения
Вы не можете редактировать свои сообщения
Вы не можете удалять свои сообщения
Вы не можете добавлять вложения

Перейти:  
cron