Начать новую тему Ответить на тему
Статистика раздачи
Размер: 384.05 МБ | Добавлен: 26 июн 2020, 19:51 | Скачали: 0
Сидеров: 0  [0 байт/сек]    Личеров: 0  [0 байт/сек]
Пред. тема | След. тема 

Автор
Сообщение

СообщениеДобавлено: 26 июн 2020, 19:51 

Ответить с цитатой 

Lights Of Euphoria - Blood Brother
Жанр: Industrial, Electro, Synth-pop
Год выпуска диска: 1997
Производитель диска: Германия
Аудио кодек: FLAC
Тип рипа: image+.cue
Битрейт аудио: lossless
Трэклист:
01 Fahrenheit (1:55)
02 Slow Motion (4:47)
03 Under My Skin (4:59)
04 Blood Brother (5:53)
05 Waters Of Hades (5:57)
06 Hope Of Salvation (4:15)
07 Resurrection (3:40)
08 Remember Me (3:49)
09 Revenge (3:15)
10 Sundown (4:09)
11 Taste Me (4:02)
12 Biomecanic (4:23)
13 Neighbours (4:26)
14 Born To Die (4:10)
15 Celsius (0:46)
Код:
Exact Audio Copy V0.99 prebeta 4 from 23. January 2008
EAC extraction logfile from 1. December 2008, 17:23
Lights of Euphoria / Blood Brothers
Used drive  : Optiarc DVD RW AD-7173A   Adapter: 0  ID: 1
Read mode               : Secure
Utilize accurate stream : Yes
Defeat audio cache      : Yes
Make use of C2 pointers : No
Read offset correction                      : 48
Overread into Lead-In and Lead-Out          : No
Fill up missing offset samples with silence : Yes
Delete leading and trailing silent blocks   : No
Null samples used in CRC calculations       : Yes
Used interface                              : Native Win32 interface for Win NT & 2000
Used output format : Internal WAV Routines
Sample format      : 44.100 Hz; 16 Bit; Stereo
TOC of the extracted CD
     Track |   Start  |  Length  | Start sector | End sector
    ---------------------------------------------------------
        1  |  0:00.00 |  1:57.05 |         0    |     8779
        2  |  1:57.05 |  4:49.04 |      8780    |    30458
        3  |  6:46.09 |  5:01.15 |     30459    |    53048
        4  | 11:47.24 |  5:56.02 |     53049    |    79750
        5  | 17:43.26 |  5:59.26 |     79751    |   106701
        6  | 23:42.52 |  4:17.39 |    106702    |   126015
        7  | 28:00.16 |  3:42.10 |    126016    |   142675
        8  | 31:42.26 |  3:51.42 |    142676    |   160042
        9  | 35:33.68 |  3:17.44 |    160043    |   174861
       10  | 38:51.37 |  4:11.56 |    174862    |   193742
       11  | 43:03.18 |  4:04.18 |    193743    |   212060
       12  | 47:07.36 |  4:25.30 |    212061    |   231965
       13  | 51:32.66 |  4:28.61 |    231966    |   252126
       14  | 56:01.52 |  4:12.28 |    252127    |   271054
       15  | 60:14.05 |  0:46.34 |    271055    |   274538
Range status and errors
Selected range
     Filename F:\Lights of Euphoria -1997- Blood Brothers\Lights of Euphoria - Blood Brothers.wav
     Peak level 100.0 %
     Range quality 100.0 %
     Test CRC 2241FA37
     Copy CRC 2241FA37
     Copy OK
No errors occurred
AccurateRip summary
Track  1  not present in database
Track  2  not present in database
Track  3  not present in database
Track  4  not present in database
Track  5  not present in database
Track  6  not present in database
Track  7  not present in database
Track  8  not present in database
Track  9  not present in database
Track 10  not present in database
Track 11  not present in database
Track 12  not present in database
Track 13  not present in database
Track 14  not present in database
Track 15  not present in database
None of the tracks are present in the AccurateRip database
End of status report
Правила, инструкции, FAQ!!!
Торрент  Добавлен [26 июн 2020, 19:51] Скачать торрент Магнет ссылка
Скачать торрент
[ Размер 15.7 КБ / Просмотров 6 ]

Статус
Проверен 
 
Размер  384.05 МБ
Приватный: Нет (DHT включён)
.torrent скачан  0
 


     Отправить личное сообщение
   
Страница 1 из 1
Показать сообщения за:  Поле сортировки  
Начать новую тему Ответить на тему


Сейчас этот форум просматривают: нет зарегистрированных пользователей и гости: 0


Вы не можете начинать темы
Вы не можете отвечать на сообщения
Вы не можете редактировать свои сообщения
Вы не можете удалять свои сообщения
Вы не можете добавлять вложения

Перейти:  
cron