Начать новую тему Ответить на тему
Статистика раздачи
Размер: 261.04 МБ | Добавлен: 26 июн 2020, 19:17 | Скачали: 0
Сидеров: 0  [0 байт/сек]    Личеров: 0  [0 байт/сек]
Пред. тема | След. тема 

Автор
Сообщение

СообщениеДобавлено: 26 июн 2020, 19:17 

Ответить с цитатой 

Attrition - The Jeopardy Maze
Жанр: Industrial, Electro, Synth-pop
Год выпуска диска: 1998
Производитель диска: US [Projekt]
Аудио кодек: FLAC
Тип рипа: image+.cue
Битрейт аудио: lossless
Продолжительность: 49'06''
Трэклист:
1. A Virtual Angel (1:38)
2. Atomizer (Custom Mother) (4:59)
3. Waste Not, Want ... More (4:52)
4. I Am A Thief (5:38)
5. Dream Time Collector (5:07)
6. A Virtual Reprise (1:29)
7. The Thin Veil (6:18)
8. "A Few Of My Favourite Things" (6:38)
9. The Illuminator (6:45)
10. Have A Nice Time ... (3:34)
11. God Save The Queen (2:01)
Доп. информация: Стандартный "jewel case" с буклетом.
Код:
Exact Audio Copy V0.99 prebeta 4 from 23. January 2008
EAC extraction logfile from 24. August 2009, 16:27
Attrition / The Jeopardy Maze
Used drive  : PIONEER DVD-RW  DVR-115D   Adapter: 4  ID: 0
Read mode               : Secure
Utilize accurate stream : Yes
Defeat audio cache      : Yes
Make use of C2 pointers : No
Read offset correction                      : 48
Overread into Lead-In and Lead-Out          : No
Fill up missing offset samples with silence : Yes
Delete leading and trailing silent blocks   : No
Null samples used in CRC calculations       : Yes
Used interface                              : Installed external ASPI interface
Used output format              : User Defined Encoder
Selected bitrate                : 1024 kBit/s
Quality                         : High
Add ID3 tag                     : No
Command line compressor         : C:\Program Files\Exact Audio Copy\Flac\flac.exe
Additional command line options : -8 -A tukey(0.25) -A gauss(0.1875) -b 4096 -V -T "artist=%a" -T "title=%t" -T "album=%g" -T "date=%y" -T "tracknumber=%n" -T "genre=%m" %s --sector-align
TOC of the extracted CD
     Track |   Start  |  Length  | Start sector | End sector
    ---------------------------------------------------------
        1  |  0:00.00 |  1:38.57 |         0    |     7406
        2  |  1:38.57 |  4:59.50 |      7407    |    29881
        3  |  6:38.32 |  4:52.18 |     29882    |    51799
        4  | 11:30.50 |  5:38.60 |     51800    |    77209
        5  | 17:09.35 |  5:07.15 |     77210    |   100249
        6  | 22:16.50 |  1:29.70 |    100250    |   106994
        7  | 23:46.45 |  6:18.52 |    106995    |   135396
        8  | 30:05.22 |  6:38.48 |    135397    |   165294
        9  | 36:43.70 |  6:45.57 |    165295    |   195726
       10  | 43:29.52 |  3:34.40 |    195727    |   211816
       11  | 47:04.17 |  2:01.58 |    211817    |   220949
Range status and errors
Selected range
     Filename D:\REQUEST\Attrition - 1998 - The Jeopardy Maze\Attrition - The Jeopardy Maze.wav
     Peak level 100.0 %
     Range quality 100.0 %
     Test CRC 03101497
     Copy CRC 03101497
     Copy OK
No errors occurred
AccurateRip summary
Track  1  accurately ripped (confidence 5)  [C389E3C1]
Track  2  accurately ripped (confidence 5)  [6C76505A]
Track  3  accurately ripped (confidence 5)  [4422E8A3]
Track  4  accurately ripped (confidence 5)  [D51AE734]
Track  5  accurately ripped (confidence 4)  [DD1CE718]
Track  6  accurately ripped (confidence 5)  [B3E9C44D]
Track  7  accurately ripped (confidence 5)  [7EE48BB9]
Track  8  accurately ripped (confidence 5)  [BD07CA08]
Track  9  accurately ripped (confidence 5)  [AE5459CA]
Track 10  accurately ripped (confidence 5)  [13ABFF6C]
Track 11  accurately ripped (confidence 5)  [375D61CD]
All tracks accurately ripped
End of status report
Код:
AUDIOCHECKER v1.2 - by Dester - opdester@freemail.hu
~~~~~~~~~~~~~~~~~
1 -===- D:\REQUEST\Attrition - 1998 - The Jeopardy Maze\Attrition - The Jeopardy Maze.flac
  Extracted successfully
  Conclusion: This track looks like CDDA with probability 100%
Сканы оформления прилагаются
Правила, инструкции, FAQ!!!
Торрент  Добавлен [26 июн 2020, 19:17] Скачать торрент Магнет ссылка
Скачать торрент
[ Размер 21.86 КБ / Просмотров 10 ]

Статус
Проверен 
 
Размер  261.04 МБ
Приватный: Нет (DHT включён)
.torrent скачан  0
 


     Отправить личное сообщение
   
Страница 1 из 1
Показать сообщения за:  Поле сортировки  
Начать новую тему Ответить на тему


Сейчас этот форум просматривают: нет зарегистрированных пользователей и гости: 0


Вы не можете начинать темы
Вы не можете отвечать на сообщения
Вы не можете редактировать свои сообщения
Вы не можете удалять свои сообщения
Вы не можете добавлять вложения

Перейти:  
cron