Начать новую тему Ответить на тему
Статистика раздачи
Размер: 613.39 МБ | Добавлен: 26 июн 2020, 16:51 | Скачали: 0
Сидеров: 0  [0 байт/сек]    Личеров: 0  [0 байт/сек]
Пред. тема | След. тема 

Автор
Сообщение

СообщениеДобавлено: 26 июн 2020, 16:51 

Ответить с цитатой 

Symmetry Of Asymmetry - Useless Breed
Жанр: Industrial, Electro
Год выпуска диска: 2008
Производитель диска: Latvia
Аудио кодек: FLAC
Тип рипа: tracks+.cue
Битрейт аудио: lossless
Продолжительность: 1:19:20
Трэклист:
1. Intro (3:22)
2. Destiny = Doom (5:51)
3. What Is Your Way (5:23)
4. Our Part = Frame (6:03)
5. Dream Trauma (5:32)
6. Melting Chaos (6:17)
7. Useless Breed Part I (4:36)
8. Useless Breed Part II (6:30)
9. Torture Chamber (6:32)
10. Blind And Useless (5:57)
11. Inevitable Essence (6:02)
12. D-Evil Flesh (5:30)
13. Deform Form (5:57)
14. Deplore With Despair (6:07)
Доп. информация:
Лэйбл: Sturm
Catalog#: Mandat nr. 24
3-х панельный дигипак.
Сканы оформления прилагаются
Код:
Exact Audio Copy V0.99 prebeta 4 from 23. January 2008
EAC extraction logfile from 9. September 2009, 21:19
Symmetry Of Asymmetry / Useless Breed
Used drive  : Optiarc BD ROM BC-5500A   Adapter: 0  ID: 0
Read mode               : Secure
Utilize accurate stream : Yes
Defeat audio cache      : Yes
Make use of C2 pointers : No
Read offset correction                      : 48
Overread into Lead-In and Lead-Out          : No
Fill up missing offset samples with silence : Yes
Delete leading and trailing silent blocks   : No
Null samples used in CRC calculations       : Yes
Used interface                              : Installed external ASPI interface
Gap handling                                : Appended to previous track
Used output format              : User Defined Encoder
Selected bitrate                : 320 kBit/s
Quality                         : High
Add ID3 tag                     : No
Command line compressor         : C:\Program Files\Exact Audio Copy\FLAC\FLAC.EXE
Additional command line options : -8 -V -T "ARTIST=%a" -T "TITLE=%t" -T "ALBUM=%g" -T "DATE=%y" -T "TRACKNUMBER=%n" -T "GENRE=%m" -T "COMMENT=EAC FLAC -8" %s
TOC of the extracted CD
     Track |   Start  |  Length  | Start sector | End sector
    ---------------------------------------------------------
        1  |  0:00.00 |  3:21.64 |         0    |    15138
        2  |  3:21.64 |  5:50.60 |     15139    |    41448
        3  |  9:12.49 |  5:22.58 |     41449    |    65656
        4  | 14:35.32 |  6:02.45 |     65657    |    92851
        5  | 20:38.02 |  5:32.24 |     92852    |   117775
        6  | 26:10.26 |  6:16.50 |    117776    |   146025
        7  | 32:27.01 |  4:36.21 |    146026    |   166746
        8  | 37:03.22 |  6:30.07 |    166747    |   196003
        9  | 43:33.29 |  6:22.65 |    196004    |   224718
       10  | 49:56.19 |  5:56.42 |    224719    |   251460
       11  | 55:52.61 |  6:01.35 |    251461    |   278570
       12  | 61:54.21 |  5:29.71 |    278571    |   303316
       13  | 67:24.17 |  5:57.21 |    303317    |   330112
       14  | 73:21.38 |  6:06.53 |    330113    |   357615
Track  1
     Filename E:\Symmetry Of Asymmetry - Useless Breed (2008) [FLAC]\01 - Intro.wav
     Pre-gap length  0:00:02.00
     Peak level 98.8 %
     Track quality 100.0 %
     Test CRC 1B50C4BF
     Copy CRC 1B50C4BF
     Track not present in AccurateRip database
     Copy OK
Track  2
     Filename E:\Symmetry Of Asymmetry - Useless Breed (2008) [FLAC]\02 - Destiny = Doom.wav
     Peak level 98.8 %
     Track quality 100.0 %
     Test CRC 835E188F
     Copy CRC 835E188F
     Track not present in AccurateRip database
     Copy OK
Track  3
     Filename E:\Symmetry Of Asymmetry - Useless Breed (2008) [FLAC]\03 - What Is Your Way.wav
     Peak level 98.8 %
     Track quality 99.9 %
     Test CRC CCC88557
     Copy CRC CCC88557
     Track not present in AccurateRip database
     Copy OK
Track  4
     Filename E:\Symmetry Of Asymmetry - Useless Breed (2008) [FLAC]\04 - Part = Frame.wav
     Peak level 98.8 %
     Track quality 99.9 %
     Test CRC 2CDF97C3
     Copy CRC 2CDF97C3
     Track not present in AccurateRip database
     Copy OK
Track  5
     Filename E:\Symmetry Of Asymmetry - Useless Breed (2008) [FLAC]\05 - Dream Trauma.wav
     Peak level 98.8 %
     Track quality 100.0 %
     Test CRC 3DE856FF
     Copy CRC 3DE856FF
     Track not present in AccurateRip database
     Copy OK
Track  6
     Filename E:\Symmetry Of Asymmetry - Useless Breed (2008) [FLAC]\06 - Melting Chaos.wav
     Peak level 98.8 %
     Track quality 100.0 %
     Test CRC 2215E41F
     Copy CRC 2215E41F
     Track not present in AccurateRip database
     Copy OK
Track  7
     Filename E:\Symmetry Of Asymmetry - Useless Breed (2008) [FLAC]\07 - Useless Breed (Part 1).wav
     Peak level 100.0 %
     Track quality 99.9 %
     Test CRC 36EAAD3C
     Copy CRC 36EAAD3C
     Track not present in AccurateRip database
     Copy OK
Track  8
     Filename E:\Symmetry Of Asymmetry - Useless Breed (2008) [FLAC]\08 - Useless Breed (Part 2).wav
     Peak level 98.8 %
     Track quality 100.0 %
     Test CRC 1061BB8D
     Copy CRC 1061BB8D
     Track not present in AccurateRip database
     Copy OK
Track  9
     Filename E:\Symmetry Of Asymmetry - Useless Breed (2008) [FLAC]\09 - Torture Chamber.wav
     Peak level 98.8 %
     Track quality 99.9 %
     Test CRC 088ADB49
     Copy CRC 088ADB49
     Track not present in AccurateRip database
     Copy OK
Track 10
     Filename E:\Symmetry Of Asymmetry - Useless Breed (2008) [FLAC]\10 - Blind And Useless.wav
     Peak level 98.8 %
     Track quality 100.0 %
     Test CRC 47D0A946
     Copy CRC 47D0A946
     Track not present in AccurateRip database
     Copy OK
Track 11
     Filename E:\Symmetry Of Asymmetry - Useless Breed (2008) [FLAC]\11 - Inevitable Essence.wav
     Peak level 98.8 %
     Track quality 100.0 %
     Test CRC 319C7878
     Copy CRC 319C7878
     Track not present in AccurateRip database
     Copy OK
Track 12
     Filename E:\Symmetry Of Asymmetry - Useless Breed (2008) [FLAC]\12 - D-Evil Flesh.wav
     Peak level 98.8 %
     Track quality 100.0 %
     Test CRC D86C45C7
     Copy CRC D86C45C7
     Track not present in AccurateRip database
     Copy OK
Track 13
     Filename E:\Symmetry Of Asymmetry - Useless Breed (2008) [FLAC]\13 - Deform Form.wav
     Peak level 98.8 %
     Track quality 99.9 %
     Test CRC D8C1D07E
     Copy CRC D8C1D07E
     Track not present in AccurateRip database
     Copy OK
Track 14
     Filename E:\Symmetry Of Asymmetry - Useless Breed (2008) [FLAC]\14 - Deplore With Despair.wav
     Peak level 98.8 %
     Track quality 100.0 %
     Test CRC 735FD2C5
     Copy CRC 735FD2C5
     Track not present in AccurateRip database
     Copy OK
None of the tracks are present in the AccurateRip database
No errors occurred
End of status report
в лосслесс на rutracker.org
Monkmort - Monkmort - 2001, FLAC (tracks+.cue), lossless
Rosewater - Bloodcount - 2006, FLAC (tracks+.cue), lossless
Symmetry Of Asymmetry - Useless Breed - 2008, FLAC (tracks+.cue), lossless
Scripta Sensus - Conscious And Unconscious Subjective Reactions... - 2008, FLAC (tracks+.cue), lossless
Правила, инструкции, FAQ!!!
Торрент  Добавлен [26 июн 2020, 16:51] Скачать торрент Магнет ссылка
Скачать торрент
[ Размер 13.61 КБ / Просмотров 5 ]

Статус
Проверен 
 
Размер  613.39 МБ
Приватный: Нет (DHT включён)
.torrent скачан  0
 


     Отправить личное сообщение
   
Страница 1 из 1
Показать сообщения за:  Поле сортировки  
Начать новую тему Ответить на тему


Сейчас этот форум просматривают: нет зарегистрированных пользователей и гости: 0


Вы не можете начинать темы
Вы не можете отвечать на сообщения
Вы не можете редактировать свои сообщения
Вы не можете удалять свои сообщения
Вы не можете добавлять вложения

Перейти:  
cron