Начать новую тему Ответить на тему
Статистика раздачи
Размер: 495.22 МБ | Добавлен: 26 июн 2020, 20:11 | Скачали: 0
Сидеров: 0  [0 байт/сек]    Личеров: 0  [0 байт/сек]
Пред. тема | След. тема 

Автор
Сообщение

СообщениеДобавлено: 26 июн 2020, 20:11 

Ответить с цитатой 

In Strict Confidence - Cryogenix
Жанр: Industrial, Electro
Год выпуска диска: 1998
Производитель диска: US
Аудио кодек: FLAC
Тип рипа: tracks+.cue
Битрейт аудио: lossless
Продолжительность: 1:12:27
Трэклист:
1 Dementia (5:34)
2 Sudorific (4:02)
3 Burning Angel (4:17)
4 Falling Down (6:48)
5 Stripped (9:09)
6 In 2 Deep (Life - Part 1) (2:40)
7 Become An Angel (5:14)
8 Beautiful Pain (4:51)
9 Sinner (4:17)
10 Change My Vein (5:24)
11 Cryonic Suspension (2nd Life) (3:26)
12 Lost In Paradise (4:35)
13 Falling Down (Tearing Thorns Mix) (6:39)
14 Become An Angel (US Remix) (5:00)
Доп. информация:
Label: Metropolis
Catalog#: MET 040
Notes: Licensed from Zoth Ommog, with additional tracks. Track 5 is a cover of a Depeche Mode song.
Код:
Exact Audio Copy V0.99 prebeta 4 from 23. January 2008
EAC extraction logfile from 18. November 2008, 0:24
In Strict Confidence / Cryogenix
Used drive  : _NEC    DVD_RW ND-3550A   Adapter: 0  ID: 0
Read mode               : Secure
Utilize accurate stream : Yes
Defeat audio cache      : Yes
Make use of C2 pointers : No
Read offset correction                      : 48
Overread into Lead-In and Lead-Out          : No
Fill up missing offset samples with silence : Yes
Delete leading and trailing silent blocks   : No
Null samples used in CRC calculations       : Yes
Used interface                              : Installed external ASPI interface
Gap handling                                : Appended to previous track
Used output format              : User Defined Encoder
Selected bitrate                : 1024 kBit/s
Quality                         : High
Add ID3 tag                     : No
Command line compressor         : D:\Programs\Tools\_Exact Audio Copy\FLAC\FLAC.EXE
Additional command line options : -8 -V -T "ARTIST=%a" -T "TITLE=%t" -T "ALBUM=%g" -T "DATE=%y" -T "TRACKNUMBER=%n" -T "GENRE=%m" -T "COMMENT=%e" %s -o %d
TOC of the extracted CD
     Track |   Start  |  Length  | Start sector | End sector
    ---------------------------------------------------------
        1  |  0:01.00 |  5:37.71 |        75    |    25420
        2  |  5:38.71 |  4:05.19 |     25421    |    43814
        3  |  9:44.15 |  4:19.63 |     43815    |    63302
        4  | 14:04.03 |  6:47.19 |     63303    |    93846
        5  | 20:51.22 |  9:10.24 |     93847    |   135120
        6  | 30:01.46 |  2:43.05 |    135121    |   147350
        7  | 32:44.51 |  5:16.29 |    147351    |   171079
        8  | 38:01.05 |  4:52.64 |    171080    |   193043
        9  | 42:53.69 |  4:19.21 |    193044    |   212489
       10  | 47:13.15 |  5:26.65 |    212490    |   237004
       11  | 52:40.05 |  3:29.34 |    237005    |   252713
       12  | 56:09.39 |  4:37.46 |    252714    |   273534
       13  | 60:47.10 |  6:40.12 |    273535    |   303546
       14  | 67:27.22 |  5:01.07 |    303547    |   326128
Track  1
     Filename G:\EAC Temporare\01 Dementia.wav
     Pre-gap length  0:00:03.00
     Peak level 100.0 %
     Track quality 100.0 %
     Test CRC E73B72A2
     Copy CRC E73B72A2
     Track not present in AccurateRip database
     Copy OK
Track  2
     Filename G:\EAC Temporare\02 Sudorific.wav
     Pre-gap length  0:00:02.45
     Peak level 100.0 %
     Track quality 100.0 %
     Test CRC A139F627
     Copy CRC A139F627
     Track not present in AccurateRip database
     Copy OK
Track  3
     Filename G:\EAC Temporare\03 Burning Angel.wav
     Pre-gap length  0:00:02.45
     Peak level 98.4 %
     Track quality 100.0 %
     Test CRC A9C1957E
     Copy CRC A9C1957E
     Track not present in AccurateRip database
     Copy OK
Track  4
     Filename G:\EAC Temporare\04 Falling Down.wav
     Pre-gap length  0:00:02.45
     Peak level 98.7 %
     Track quality 100.0 %
     Test CRC F229180F
     Copy CRC F229180F
     Track not present in AccurateRip database
     Copy OK
Track  5
     Filename G:\EAC Temporare\05 Stripped.wav
     Pre-gap length  0:00:02.45
     Peak level 99.8 %
     Track quality 100.0 %
     Test CRC A5B446D5
     Copy CRC A5B446D5
     Track not present in AccurateRip database
     Copy OK
Track  6
     Filename G:\EAC Temporare\06 In 2 Deep (Life - Part 1).wav
     Pre-gap length  0:00:02.45
     Peak level 98.2 %
     Track quality 100.0 %
     Test CRC 767577AD
     Copy CRC 767577AD
     Track not present in AccurateRip database
     Copy OK
Track  7
     Filename G:\EAC Temporare\07 Become An Angel.wav
     Pre-gap length  0:00:02.45
     Peak level 99.2 %
     Track quality 100.0 %
     Test CRC 9C2E3B45
     Copy CRC 9C2E3B45
     Track not present in AccurateRip database
     Copy OK
Track  8
     Filename G:\EAC Temporare\08 Beautiful Pain.wav
     Pre-gap length  0:00:02.45
     Peak level 100.0 %
     Track quality 100.0 %
     Test CRC 7ED6450E
     Copy CRC 7ED6450E
     Track not present in AccurateRip database
     Copy OK
Track  9
     Filename G:\EAC Temporare\09 Sinner.wav
     Pre-gap length  0:00:02.45
     Peak level 100.0 %
     Track quality 100.0 %
     Test CRC B85496AF
     Copy CRC B85496AF
     Track not present in AccurateRip database
     Copy OK
Track 10
     Filename G:\EAC Temporare\10 Change My Vein.wav
     Pre-gap length  0:00:02.45
     Peak level 96.6 %
     Track quality 100.0 %
     Test CRC 1B1FF7CC
     Copy CRC 1B1FF7CC
     Track not present in AccurateRip database
     Copy OK
Track 11
     Filename G:\EAC Temporare\11 Cryonic Suspension (2nd Life).wav
     Pre-gap length  0:00:02.45
     Peak level 93.5 %
     Track quality 100.0 %
     Test CRC 67E258D5
     Copy CRC 67E258D5
     Track not present in AccurateRip database
     Copy OK
Track 12
     Filename G:\EAC Temporare\12 Lost In Paradise.wav
     Pre-gap length  0:00:02.45
     Peak level 99.1 %
     Track quality 99.9 %
     Test CRC F37690EA
     Copy CRC F37690EA
     Track not present in AccurateRip database
     Copy OK
Track 13
     Filename G:\EAC Temporare\13 Falling Down (Tearing Thorns Mix).wav
     Pre-gap length  0:00:02.45
     Peak level 100.0 %
     Track quality 100.0 %
     Test CRC FDC76036
     Copy CRC FDC76036
     Track not present in AccurateRip database
     Copy OK
Track 14
     Filename G:\EAC Temporare\14 Become An Angel (US Remix).wav
     Pre-gap length  0:00:02.45
     Peak level 100.0 %
     Track quality 100.0 %
     Test CRC 7611AAE4
     Copy CRC 7611AAE4
     Track not present in AccurateRip database
     Copy OK
None of the tracks are present in the AccurateRip database
No errors occurred
End of status report
Зарелизено на rutracker.org

на раздаче ВСЕГДА в нерабочее время (вечер, ночь, выходные), в остальное время как получится
Правила, инструкции, FAQ!!!
Торрент  Добавлен [26 июн 2020, 20:11] Скачать торрент Магнет ссылка
Скачать торрент
[ Размер 21.06 КБ / Просмотров 7 ]

Статус
Проверен 
 
Размер  495.22 МБ
Приватный: Нет (DHT включён)
.torrent скачан  0
 


     Отправить личное сообщение
   
Страница 1 из 1
Показать сообщения за:  Поле сортировки  
Начать новую тему Ответить на тему


Сейчас этот форум просматривают: нет зарегистрированных пользователей и гости: 0


Вы не можете начинать темы
Вы не можете отвечать на сообщения
Вы не можете редактировать свои сообщения
Вы не можете удалять свои сообщения
Вы не можете добавлять вложения

Перейти:  
cron