Начать новую тему Ответить на тему
Статистика раздачи
Размер: 362.12 МБ | Добавлен: 26 июн 2020, 20:25 | Скачали: 0
Сидеров: 0  [0 байт/сек]    Личеров: 0  [0 байт/сек]
Пред. тема | След. тема 

Автор
Сообщение

СообщениеДобавлено: 26 июн 2020, 20:25 

Ответить с цитатой 

Siechtum - Diagnose:Zeit
Жанр: Industrial, Electro
Год выпуска диска: 2001
Производитель диска: Germany
Аудио кодек: FLAC
Тип рипа: tracks+.cue
Битрейт аудио: lossless
Продолжительность: 49:00
Источник: What.CD
Треклист:
1 Schlagschatten 1:38
2 Meinungsindustrie 4:13
3 Judas Ischariot 4:06
4 New Breed 4:31
5 Zeitenwende 5:08
6 Winterstahl 4:17
7 Follow Me 4:33
8 Kontrolle 3:35
9 Drohnenfabrik 3:50
10 Diagnose Zeit 5:09
11 Hochmut 4:42
12 Patient Tot 2:56
13 Flatline 0:21
Внимание! Все выложенные здесь материалы предоставлены исключительно в целях
ознакомления! После ознакомления с материалами Вы обязаны их удалить! Если Вы хотите пользоваться
данным материалом в дальнейшем – Вы должны приобрести лицензионный диск.

Лучшая ваша благодарность за раздачу - отзывы об альбоме!
Друзья, оставайтесь на раздаче, ибо скорость исходящего канала у меня пока всего 512 Кбит/с
Думаю многим знакома австрийская группа L’ame Immortelle, достаточно известен сайд проект Сони Краусхофер «Persephone», но вот сайд проект второй половинки L’ame Immortelle – Томас Райнера Siechtum остается не очень известным.
Под этой вывеской Райнер исполнял, жесткую версию EBM/Elektro с периодическими заплывами на пограничные территории power-noise, впрочем местами можно услышать даже отголоски дарквэйва.
В музыке присутствует мрачное, агрессивное настроение, музыка ощетинивается жесткими, острыми, но при этом искареженными и изрядно зашумленными звуками, и дает понять что беззаботного веселья здесь не будет. Плюс на последнем диске, Томас решил добавить искаженный вокал, который вместе с немецкоязычной (в основном) лирикой, привносит еще больше агрессии в саунд. Интересно, что судя по www.discogs.com, Siechtum превратился в дуэт - полноправным участниом стал тип по имени Иоким, и с очень подозрительной фамилией Собчак , до этого принимавший судя опять же по дискогсу эпизодическое участие в написании и продюссировании музыки. В тоже время в большинстве источников Siechtum упоминается как one man band…
К сожалению этим релизом, Райнер определил Siechtum диагноз: время. И двумя последними треками с него поставил точку на существовании проекта, сообщив что пациент скорее мертв, чем жив.
————————-
Страна: Австрия
Стилистика: Elektro, EBM, power-noise
————————
Последний состав:
Томас Райнер (Thomas Rainer)
Иоким Собчак (Joachim)
————————-
Дискография:
2000 - Gesellschaft:Mord
2001 - Kreuz:X:Feuer
2001 - Diagnose:Zeit
Источник
Код:
Exact Audio Copy V0.99 prebeta 4 from 23. January 2008
EAC extraction logfile from 10. April 2009, 21:15
Siechtum / Diagnose Zeit
Used drive  : TOSHIBA CD-ROM XM-6202B   Adapter: 3  ID: 0
Read mode               : Secure
Utilize accurate stream : Yes
Defeat audio cache      : Yes
Make use of C2 pointers : No
Read offset correction                      : 686
Overread into Lead-In and Lead-Out          : No
Fill up missing offset samples with silence : Yes
Delete leading and trailing silent blocks   : No
Null samples used in CRC calculations       : Yes
Used interface                              : Native Win32 interface for Win NT & 2000
Gap handling                                : Appended to previous track
Used output format              : User Defined Encoder
Selected bitrate                : 320 kBit/s
Quality                         : High
Add ID3 tag                     : No
Command line compressor         : C:\Program Files\Exact Audio Copy\Flac\flac.exe
Additional command line options : -V -8 -T "artist=%a" -T "title=%t" -T "album=%g" -T "date=%y" -T "tracknumber=%n" -T "genre=%m" %s
TOC of the extracted CD
     Track |   Start  |  Length  | Start sector | End sector
    ---------------------------------------------------------
        1  |  0:00.00 |  1:37.49 |         0    |     7323
        2  |  1:37.49 |  4:13.27 |      7324    |    26325
        3  |  5:51.01 |  4:06.18 |     26326    |    44793
        4  |  9:57.19 |  4:31.03 |     44794    |    65121
        5  | 14:28.22 |  5:08.27 |     65122    |    88248
        6  | 19:36.49 |  4:17.07 |     88249    |   107530
        7  | 23:53.56 |  4:33.07 |    107531    |   128012
        8  | 28:26.63 |  3:34.59 |    128013    |   144121
        9  | 32:01.47 |  3:50.35 |    144122    |   161406
       10  | 35:52.07 |  5:09.36 |    161407    |   184617
       11  | 41:01.43 |  4:41.45 |    184618    |   205737
       12  | 45:43.13 |  2:56.16 |    205738    |   218953
       13  | 48:39.29 |  0:20.65 |    218954    |   220518
Track  1
     Filename M:\Siechtum - 2001 - Diagnose Zeit\01 - Schlagschatten.wav
     Pre-gap length  0:00:02.00
     Peak level 99.9 %
     Track quality 100.0 %
     Test CRC 46FDB1CA
     Copy CRC 46FDB1CA
     Track not present in AccurateRip database
     Copy OK
Track  2
     Filename M:\Siechtum - 2001 - Diagnose Zeit\02 - Meinungsindustrie.wav
     Pre-gap length  0:00:00.03
     Peak level 99.9 %
     Track quality 99.9 %
     Test CRC 935461BC
     Copy CRC 935461BC
     Track not present in AccurateRip database
     Copy OK
Track  3
     Filename M:\Siechtum - 2001 - Diagnose Zeit\03 - Judas Ischariot.wav
     Pre-gap length  0:00:00.44
     Peak level 99.9 %
     Track quality 100.0 %
     Test CRC 221614B5
     Copy CRC 221614B5
     Track not present in AccurateRip database
     Copy OK
Track  4
     Filename M:\Siechtum - 2001 - Diagnose Zeit\04 - New Breed.wav
     Pre-gap length  0:00:00.49
     Peak level 99.9 %
     Track quality 100.0 %
     Test CRC 5AE331C8
     Copy CRC 5AE331C8
     Track not present in AccurateRip database
     Copy OK
Track  5
     Filename M:\Siechtum - 2001 - Diagnose Zeit\05 - Zeitenwende.wav
     Pre-gap length  0:00:01.71
     Peak level 99.9 %
     Track quality 100.0 %
     Test CRC 876DA590
     Copy CRC 876DA590
     Track not present in AccurateRip database
     Copy OK
Track  6
     Filename M:\Siechtum - 2001 - Diagnose Zeit\06 - Winterstahl.wav
     Pre-gap length  0:00:01.60
     Peak level 99.9 %
     Track quality 100.0 %
     Test CRC D7899CD6
     Copy CRC D7899CD6
     Track not present in AccurateRip database
     Copy OK
Track  7
     Filename M:\Siechtum - 2001 - Diagnose Zeit\07 - Follow Me.wav
     Pre-gap length  0:00:00.20
     Peak level 99.9 %
     Track quality 100.0 %
     Test CRC F1E7A048
     Copy CRC F1E7A048
     Track not present in AccurateRip database
     Copy OK
Track  8
     Filename M:\Siechtum - 2001 - Diagnose Zeit\08 - Kontrolle.wav
     Pre-gap length  0:00:01.21
     Peak level 99.9 %
     Track quality 100.0 %
     Test CRC 5FD53D3A
     Copy CRC 5FD53D3A
     Track not present in AccurateRip database
     Copy OK
Track  9
     Filename M:\Siechtum - 2001 - Diagnose Zeit\09 - Drohnenfabrik.wav
     Pre-gap length  0:00:01.09
     Peak level 99.9 %
     Track quality 99.9 %
     Test CRC 946EE3AD
     Copy CRC 946EE3AD
     Track not present in AccurateRip database
     Copy OK
Track 10
     Filename M:\Siechtum - 2001 - Diagnose Zeit\10 - Diagnose Zeit.wav
     Pre-gap length  0:00:01.72
     Peak level 99.9 %
     Track quality 99.9 %
     Test CRC 8DED5DD6
     Copy CRC 8DED5DD6
     Track not present in AccurateRip database
     Copy OK
Track 11
     Filename M:\Siechtum - 2001 - Diagnose Zeit\11 - Hochmut.wav
     Pre-gap length  0:00:01.05
     Peak level 99.9 %
     Track quality 99.9 %
     Test CRC 30B16D07
     Copy CRC 30B16D07
     Track not present in AccurateRip database
     Copy OK
Track 12
     Filename M:\Siechtum - 2001 - Diagnose Zeit\12 - Patient tot.wav
     Pre-gap length  0:00:00.72
     Peak level 99.9 %
     Track quality 100.0 %
     Test CRC FEAC7CCF
     Copy CRC FEAC7CCF
     Track not present in AccurateRip database
     Copy OK
Track 13
     Filename M:\Siechtum - 2001 - Diagnose Zeit\13 - Flatline.wav
     Peak level 29.6 %
     Track quality 100.0 %
     Test CRC 4CCC01D9
     Copy CRC 4CCC01D9
     Track not present in AccurateRip database
     Copy OK
None of the tracks are present in the AccurateRip database
No errors occurred
End of status report
Код:
REM GENRE Industrial
REM DATE 2001
REM DISCID BD0B7C0D
REM COMMENT "ExactAudioCopy v0.99pb4"
PERFORMER "Siechtum"
TITLE "Diagnose Zeit"
FILE "01 - Schlagschatten.wav" WAVE
  TRACK 01 AUDIO
    TITLE "Schlagschatten"
    PERFORMER "Siechtum"
    INDEX 01 00:00:00
  TRACK 02 AUDIO
    TITLE "Meinungsindustrie"
    PERFORMER "Siechtum"
    INDEX 00 01:37:46
FILE "02 - Meinungsindustrie.wav" WAVE
    INDEX 01 00:00:00
  TRACK 03 AUDIO
    TITLE "Judas Ischariot"
    PERFORMER "Siechtum"
    INDEX 00 04:12:58
FILE "03 - Judas Ischariot.wav" WAVE
    INDEX 01 00:00:00
  TRACK 04 AUDIO
    TITLE "New Breed"
    PERFORMER "Siechtum"
    INDEX 00 04:05:44
FILE "04 - New Breed.wav" WAVE
    INDEX 01 00:00:00
  TRACK 05 AUDIO
    TITLE "Zeitenwende"
    PERFORMER "Siechtum"
    INDEX 00 04:29:07
FILE "05 - Zeitenwende.wav" WAVE
    INDEX 01 00:00:00
  TRACK 06 AUDIO
    TITLE "Winterstahl"
    PERFORMER "Siechtum"
    INDEX 00 05:06:42
FILE "06 - Winterstahl.wav" WAVE
    INDEX 01 00:00:00
  TRACK 07 AUDIO
    TITLE "Follow Me"
    PERFORMER "Siechtum"
    INDEX 00 04:16:62
FILE "07 - Follow Me.wav" WAVE
    INDEX 01 00:00:00
  TRACK 08 AUDIO
    TITLE "Kontrolle"
    PERFORMER "Siechtum"
    INDEX 00 04:31:61
FILE "08 - Kontrolle.wav" WAVE
    INDEX 01 00:00:00
  TRACK 09 AUDIO
    TITLE "Drohnenfabrik"
    PERFORMER "Siechtum"
    INDEX 00 03:33:50
FILE "09 - Drohnenfabrik.wav" WAVE
    INDEX 01 00:00:00
  TRACK 10 AUDIO
    TITLE "Diagnose Zeit"
    PERFORMER "Siechtum"
    INDEX 00 03:48:38
FILE "10 - Diagnose Zeit.wav" WAVE
    INDEX 01 00:00:00
  TRACK 11 AUDIO
    TITLE "Hochmut"
    PERFORMER "Siechtum"
    INDEX 00 05:08:31
FILE "11 - Hochmut.wav" WAVE
    INDEX 01 00:00:00
  TRACK 12 AUDIO
    TITLE "Patient tot"
    PERFORMER "Siechtum"
    INDEX 00 04:40:48
FILE "12 - Patient tot.wav" WAVE
    INDEX 01 00:00:00
FILE "13 - Flatline.wav" WAVE
  TRACK 13 AUDIO
    TITLE "Flatline"
    PERFORMER "Siechtum"
    INDEX 01 00:00:00
Правила, инструкции, FAQ!!!
Торрент  Добавлен [26 июн 2020, 20:25] Скачать торрент Магнет ссылка
Скачать торрент
[ Размер 15.48 КБ / Просмотров 7 ]

Статус
Проверен 
 
Размер  362.12 МБ
Приватный: Нет (DHT включён)
.torrent скачан  0
 


     Отправить личное сообщение
   
Страница 1 из 1
Показать сообщения за:  Поле сортировки  
Начать новую тему Ответить на тему


Сейчас этот форум просматривают: нет зарегистрированных пользователей и гости: 0


Вы не можете начинать темы
Вы не можете отвечать на сообщения
Вы не можете редактировать свои сообщения
Вы не можете удалять свои сообщения
Вы не можете добавлять вложения

Перейти:  
cron