Начать новую тему Ответить на тему
Статистика раздачи
Размер: 268.73 МБ | Добавлен: 26 июн 2020, 17:29 | Скачали: 0
Сидеров: 0  [0 байт/сек]    Личеров: 0  [0 байт/сек]
Пред. тема | След. тема 

Автор
Сообщение

СообщениеДобавлено: 26 июн 2020, 17:29 

Ответить с цитатой 

Seven Trees - Embracing The Unknown
Жанр: Industrial, Electro
Год выпуска диска: 1997
Производитель диска: Германия
Аудио кодек: FLAC
Тип рипа: tracks+.cue
Битрейт аудио: lossless
Трэклист:
1 Submission (4:48)
2 Stale (5:21)
3 Tear Stained (4:11)
4 Overload (4:52)
5 Velvet Dream (4:20)
6 Going Down (4:18)
7 The Unknown (4:28)
8 The Live Is Regret (4:34)
9 Desire Slowly Bursting (5:45)
Exact Audio Copy V0.99 prebeta 4 from 23. January 2008
EAC extraction logfile from 16. November 2008, 15:18
Seven Trees / Embracing The Unknown
Used drive : TSSTcorpDVD+-RW TS-H653B Adapter: 1 ID: 0
Read mode : Secure
Utilize accurate stream : Yes
Defeat audio cache : Yes
Make use of C2 pointers : No
Read offset correction : 6
Overread into Lead-In and Lead-Out : No
Fill up missing offset samples with silence : Yes
Delete leading and trailing silent blocks : No
Null samples used in CRC calculations : Yes
Used interface : Installed external ASPI interface
Gap handling : Appended to previous track
Used output format : User Defined Encoder
Selected bitrate : 192 kBit/s
Quality : High
Add ID3 tag : No
Command line compressor : C:\Program Files\Exact Audio Copy\Flac\flac.exe
Additional command line options : -V -8 -T "artist=%a" -T "title=%t" -T "album=%g" -T "date=%y" -T "tracknumber=%n" -T "genre=%m" %s
TOC of the extracted CD
Track | Start | Length | Start sector | End sector
---------------------------------------------------------
1 | 0:01.00 | 4:48.48 | 75 | 21722
2 | 4:49.48 | 5:21.13 | 21723 | 45810
3 | 10:10.61 | 4:11.39 | 45811 | 64674
4 | 14:22.25 | 4:52.12 | 64675 | 86586
5 | 19:14.37 | 4:20.72 | 86587 | 106158
6 | 23:35.34 | 4:18.23 | 106159 | 125531
7 | 27:53.57 | 4:28.58 | 125532 | 145689
8 | 32:22.40 | 4:34.03 | 145690 | 166242
9 | 36:56.43 | 5:45.04 | 166243 | 192121
Track 1
Filename F:\A\Seven Trees - Embracing The Unknown [flac]\01 - Submission.wav
Pre-gap length 0:00:03.00
Peak level 100.0 %
Track quality 100.0 %
Test CRC 23A342B7
Copy CRC 23A342B7
Accurately ripped (confidence 5) [EB21FBB6]
Copy OK
Track 2
Filename F:\A\Seven Trees - Embracing The Unknown [flac]\02 - Stale.wav
Pre-gap length 0:00:02.58
Peak level 100.0 %
Track quality 100.0 %
Test CRC 29CFA1FD
Copy CRC 29CFA1FD
Accurately ripped (confidence 5) [9D5BC2B0]
Copy OK
Track 3
Filename F:\A\Seven Trees - Embracing The Unknown [flac]\03 - Tearstained.wav
Peak level 100.0 %
Track quality 100.0 %
Test CRC B267BA03
Copy CRC B267BA03
Accurately ripped (confidence 5) [24DEA52E]
Copy OK
Track 4
Filename F:\A\Seven Trees - Embracing The Unknown [flac]\04 - Overload.wav
Pre-gap length 0:00:02.57
Peak level 100.0 %
Track quality 100.0 %
Test CRC 12B44A05
Copy CRC 12B44A05
Accurately ripped (confidence 5) [8B5135A5]
Copy OK
Track 5
Filename F:\A\Seven Trees - Embracing The Unknown [flac]\05 - Velvet Dream.wav
Pre-gap length 0:00:02.56
Peak level 100.0 %
Track quality 100.0 %
Test CRC 0A6EFB12
Copy CRC 0A6EFB12
Accurately ripped (confidence 5) [8042B234]
Copy OK
Track 6
Filename F:\A\Seven Trees - Embracing The Unknown [flac]\06 - Going Down.wav
Pre-gap length 0:00:02.58
Peak level 100.0 %
Track quality 100.0 %
Test CRC 701CD820
Copy CRC 701CD820
Accurately ripped (confidence 5) [E3CA47D7]
Copy OK
Track 7
Filename F:\A\Seven Trees - Embracing The Unknown [flac]\07 - The Unknown.wav
Pre-gap length 0:00:02.54
Peak level 100.0 %
Track quality 100.0 %
Test CRC 87F73315
Copy CRC 87F73315
Accurately ripped (confidence 5) [A5FE5293]
Copy OK
Track 8
Filename F:\A\Seven Trees - Embracing The Unknown [flac]\08 - To Live Is Regret.wav
Peak level 100.0 %
Track quality 100.0 %
Test CRC D449685F
Copy CRC D449685F
Accurately ripped (confidence 5) [316EA537]
Copy OK
Track 9
Filename F:\A\Seven Trees - Embracing The Unknown [flac]\09 - Desire Slowly Bursting.wav
Pre-gap length 0:00:02.60
Peak level 100.0 %
Track quality 100.0 %
Test CRC DDBBD4F6
Copy CRC DDBBD4F6
Accurately ripped (confidence 5) [3C8B53F6]
Copy OK
All tracks accurately ripped
No errors occurred
End of status report
Правила, инструкции, FAQ!!!
Торрент  Добавлен [26 июн 2020, 17:29] Скачать торрент Магнет ссылка
Скачать торрент
[ Размер 11.55 КБ / Просмотров 4 ]

Статус
Проверен 
 
Размер  268.73 МБ
Приватный: Нет (DHT включён)
.torrent скачан  0
 


     Отправить личное сообщение
   
Страница 1 из 1
Показать сообщения за:  Поле сортировки  
Начать новую тему Ответить на тему


Сейчас этот форум просматривают: нет зарегистрированных пользователей и гости: 0


Вы не можете начинать темы
Вы не можете отвечать на сообщения
Вы не можете редактировать свои сообщения
Вы не можете удалять свои сообщения
Вы не можете добавлять вложения

Перейти:  
cron